osu file format v14

[General]
AudioFilename: Messier 333 -BOF2009 Web Compi Mix-.mp3
AudioLeadIn: 1500
PreviewTime: 13900
Countdown: 0
SampleSet: Soft
StackLeniency: 0.7
Mode: 3
LetterboxInBreaks: 0
WidescreenStoryboard: 1

[Editor]
DistanceSpacing: 0.8
BeatDivisor: 12
GridSize: 4
TimelineZoom: 3.599999

[Metadata]
Title:Messier 333
TitleUnicode:Messier 333
Artist:sun3
ArtistUnicode:sun3
Creator:MOONWOLF
Version:7K Extra
Source:THE BMS OF FIGHTERS 2009 - revolutionary battles -
Tags:BOF2009 Web Compi Mix _ GD cooperate xeona, Nijigen-kun, leqek
BeatmapID:478411
BeatmapSetID:89535

[Difficulty]
HPDrainRate:8
CircleSize:7
OverallDifficulty:8
ApproachRate:7
SliderMultiplier:0.4
SliderTickRate:1

[Events]
//Background and Video events
0,0,"title_main_01.png",0,0
Video,0,"video.avi",0,0
//Break Periods
//Storyboard Layer 0 (Background)
//Storyboard Layer 1 (Fail)
//Storyboard Layer 2 (Pass)
//Storyboard Layer 3 (Foreground)
//Storyboard Sound Samples
//Background Colour Transformations
3,100,163,162,255

[TimingPoints]
1480,352.941176470588,4,2,2,5,1,0
83362,-100,4,2,2,5,0,1
105950,-100,4,2,2,5,0,0

[HitObjects]
36,192,1480,5,0,0:0:0:0:
475,192,1480,1,0,0:0:0:0:
182,192,1480,1,0,0:0:0:0:
109,192,1656,1,0,0:0:0:0:
402,192,1656,1,0,0:0:0:0:
256,192,1832,1,0,0:0:0:0:
36,192,2009,1,0,0:0:0:0:
109,192,2009,1,0,0:0:0:0:
329,192,2009,1,0,0:0:0:0:
182,192,2185,1,0,0:0:0:0:
109,192,2362,1,0,0:0:0:0:
402,192,2362,1,0,0:0:0:0:
36,192,2538,1,0,0:0:0:0:
329,192,2538,1,0,0:0:0:0:
109,192,2715,1,0,0:0:0:0:
402,192,2715,1,0,0:0:0:0:
182,192,2891,1,0,0:0:0:0:
36,192,3068,1,0,0:0:0:0:
109,192,3068,1,0,0:0:0:0:
402,192,3068,1,0,0:0:0:0:
256,192,3244,1,0,0:0:0:0:
36,192,3421,1,0,0:0:0:0:
109,192,3421,1,0,0:0:0:0:
329,192,3421,1,0,0:0:0:0:
182,192,3597,1,0,0:0:0:0:
475,192,3597,1,0,0:0:0:0:
109,192,3774,1,0,0:0:0:0:
402,192,3774,1,0,0:0:0:0:
475,192,3862,1,0,0:0:0:0:
256,192,3950,1,0,0:0:0:0:
109,192,4127,1,0,0:0:0:0:
329,192,4127,1,0,0:0:0:0:
475,192,4127,1,0,0:0:0:0:
182,192,4303,1,0,0:0:0:0:
402,192,4303,1,0,0:0:0:0:
36,192,4479,1,0,0:0:0:0:
402,192,4479,1,0,0:0:0:0:
475,192,4479,1,0,0:0:0:0:
256,192,4656,1,0,0:0:0:0:
329,192,4656,1,0,0:0:0:0:
36,192,4832,1,0,0:0:0:0:
329,192,4832,1,0,0:0:0:0:
402,192,4832,1,0,0:0:0:0:
182,192,5009,1,0,0:0:0:0:
256,192,5009,1,0,0:0:0:0:
36,192,5185,1,0,0:0:0:0:
475,192,5185,1,0,0:0:0:0:
329,192,5274,1,0,0:0:0:0:
109,192,5362,1,0,0:0:0:0:
256,192,5362,1,0,0:0:0:0:
36,192,5538,1,0,0:0:0:0:
182,192,5538,1,0,0:0:0:0:
402,192,5538,1,0,0:0:0:0:
109,192,5715,1,0,0:0:0:0:
182,192,5715,1,0,0:0:0:0:
36,192,5891,1,0,0:0:0:0:
182,192,5891,1,0,0:0:0:0:
402,192,5891,1,0,0:0:0:0:
329,192,5979,1,0,0:0:0:0:
182,192,6068,1,0,0:0:0:0:
475,192,6068,1,0,0:0:0:0:
36,192,6244,1,0,0:0:0:0:
329,192,6244,1,0,0:0:0:0:
475,192,6244,1,0,0:0:0:0:
109,192,6421,1,0,0:0:0:0:
402,192,6421,1,0,0:0:0:0:
36,192,6597,1,0,0:0:0:0:
256,192,6597,1,0,0:0:0:0:
329,192,6685,1,0,0:0:0:0:
109,192,6774,1,0,0:0:0:0:
36,192,6950,1,0,0:0:0:0:
256,192,6950,1,0,0:0:0:0:
402,192,6950,1,0,0:0:0:0:
36,192,7127,1,0,0:0:0:0:
329,192,7127,1,0,0:0:0:0:
475,192,7127,1,0,0:0:0:0:
109,192,7303,1,0,0:0:0:0:
402,192,7303,1,0,0:0:0:0:
182,192,7479,1,0,0:0:0:0:
475,192,7479,1,0,0:0:0:0:
109,192,7656,1,0,0:0:0:0:
256,192,7656,1,0,0:0:0:0:
402,192,7656,1,0,0:0:0:0:
36,192,7832,1,0,0:0:0:0:
109,192,8009,1,0,0:0:0:0:
402,192,8009,1,0,0:0:0:0:
182,192,8185,1,0,0:0:0:0:
329,192,8185,1,0,0:0:0:0:
109,192,8362,1,0,0:0:0:0:
256,192,8362,1,0,0:0:0:0:
329,192,8538,1,0,0:0:0:0:
109,192,8715,1,0,0:0:0:0:
256,192,8715,1,0,0:0:0:0:
475,192,8715,1,0,0:0:0:0:
182,192,8891,1,0,0:0:0:0:
329,192,8891,1,0,0:0:0:0:
109,192,9068,1,0,0:0:0:0:
256,192,9068,1,0,0:0:0:0:
475,192,9068,1,0,0:0:0:0:
36,192,9244,1,0,0:0:0:0:
182,192,9244,1,0,0:0:0:0:
329,192,9421,1,0,0:0:0:0:
475,192,9421,1,0,0:0:0:0:
36,192,9509,1,0,0:0:0:0:
256,192,9597,1,0,0:0:0:0:
36,192,9774,1,0,0:0:0:0:
109,192,9774,1,0,0:0:0:0:
475,192,9774,1,0,0:0:0:0:
182,192,9950,1,0,0:0:0:0:
36,192,10127,1,0,0:0:0:0:
256,192,10127,1,0,0:0:0:0:
402,192,10127,1,0,0:0:0:0:
36,192,10303,1,0,0:0:0:0:
182,192,10303,1,0,0:0:0:0:
36,192,10479,1,0,0:0:0:0:
256,192,10479,1,0,0:0:0:0:
402,192,10479,1,0,0:0:0:0:
256,192,10656,1,0,0:0:0:0:
475,192,10656,1,0,0:0:0:0:
329,192,10744,1,0,0:0:0:0:
109,192,10832,1,0,0:0:0:0:
256,192,10832,1,0,0:0:0:0:
475,192,10832,1,0,0:0:0:0:
36,192,11009,1,0,0:0:0:0:
256,192,11009,1,0,0:0:0:0:
182,192,11097,1,0,0:0:0:0:
36,192,11185,1,0,0:0:0:0:
256,192,11185,1,0,0:0:0:0:
402,192,11185,1,0,0:0:0:0:
36,192,11362,1,0,0:0:0:0:
109,192,11362,1,0,0:0:0:0:
475,192,11362,1,0,0:0:0:0:
182,192,11450,1,0,0:0:0:0:
36,192,11538,1,0,0:0:0:0:
329,192,11538,1,0,0:0:0:0:
402,192,11538,1,0,0:0:0:0:
182,192,11627,1,0,0:0:0:0:
36,192,11715,1,0,0:0:0:0:
109,192,11715,1,0,0:0:0:0:
475,192,11715,1,0,0:0:0:0:
182,192,11803,1,0,0:0:0:0:
36,192,11891,1,0,0:0:0:0:
329,192,11891,1,0,0:0:0:0:
402,192,11891,1,0,0:0:0:0:
182,192,11979,1,0,0:0:0:0:
36,192,12068,1,0,0:0:0:0:
109,192,12068,1,0,0:0:0:0:
475,192,12068,1,0,0:0:0:0:
256,192,12244,1,0,0:0:0:0:
402,192,12244,1,0,0:0:0:0:
36,192,12332,1,0,0:0:0:0:
182,192,12421,1,0,0:0:0:0:
475,192,12421,1,0,0:0:0:0:
36,192,12597,1,0,0:0:0:0:
109,192,12597,1,0,0:0:0:0:
402,192,12597,1,0,0:0:0:0:
36,192,13127,1,0,0:0:0:0:
256,192,13127,1,0,0:0:0:0:
475,192,13127,1,0,0:0:0:0:
182,192,13215,1,0,0:0:0:0:
402,192,13215,1,0,0:0:0:0:
256,192,13303,1,0,0:0:0:0:
109,192,13391,1,0,0:0:0:0:
402,192,13391,1,0,0:0:0:0:
36,192,13479,1,0,0:0:0:0:
329,192,13479,1,0,0:0:0:0:
475,192,13479,1,0,0:0:0:0:
256,192,13568,1,0,0:0:0:0:
402,192,13656,1,0,0:0:0:0:
256,192,13744,1,0,0:0:0:0:
36,192,13832,1,0,0:0:0:0:
329,192,13832,1,0,0:0:0:0:
475,192,13832,1,0,0:0:0:0:
182,192,13921,1,0,0:0:0:0:
402,192,13921,1,0,0:0:0:0:
109,192,14009,1,0,0:0:0:0:
256,192,14009,1,0,0:0:0:0:
329,192,14097,1,0,0:0:0:0:
402,192,14097,1,0,0:0:0:0:
36,192,14185,1,0,0:0:0:0:
182,192,14185,1,0,0:0:0:0:
475,192,14185,1,0,0:0:0:0:
329,192,14274,1,0,0:0:0:0:
402,192,14274,1,0,0:0:0:0:
256,192,14362,1,0,0:0:0:0:
475,192,14362,1,0,0:0:0:0:
182,192,14450,1,0,0:0:0:0:
329,192,14450,1,0,0:0:0:0:
36,192,14538,1,0,0:0:0:0:
109,192,14538,1,0,0:0:0:0:
402,192,14538,1,0,0:0:0:0:
475,192,14538,1,0,0:0:0:0:
256,192,14627,1,0,0:0:0:0:
329,192,14627,1,0,0:0:0:0:
402,192,14715,1,0,0:0:0:0:
182,192,14803,1,0,0:0:0:0:
256,192,14803,1,0,0:0:0:0:
36,192,14891,1,0,0:0:0:0:
329,192,14891,1,0,0:0:0:0:
475,192,14891,1,0,0:0:0:0:
256,192,14979,1,0,0:0:0:0:
402,192,14979,1,0,0:0:0:0:
109,192,15068,1,0,0:0:0:0:
256,192,15156,1,0,0:0:0:0:
36,192,15244,1,0,0:0:0:0:
475,192,15244,1,0,0:0:0:0:
256,192,15332,1,0,0:0:0:0:
402,192,15332,1,0,0:0:0:0:
109,192,15421,1,0,0:0:0:0:
256,192,15509,1,0,0:0:0:0:
402,192,15509,1,0,0:0:0:0:
36,192,15597,1,0,0:0:0:0:
182,192,15597,1,0,0:0:0:0:
329,192,15597,1,0,0:0:0:0:
475,192,15597,1,0,0:0:0:0:
256,192,15685,1,0,0:0:0:0:
402,192,15685,1,0,0:0:0:0:
109,192,15774,1,0,0:0:0:0:
475,192,15774,1,0,0:0:0:0:
182,192,15862,1,0,0:0:0:0:
36,192,15950,1,0,0:0:0:0:
109,192,15950,1,0,0:0:0:0:
402,192,15950,1,0,0:0:0:0:
475,192,15950,1,0,0:0:0:0:
256,192,16038,1,0,0:0:0:0:
329,192,16038,1,0,0:0:0:0:
182,192,16127,1,0,0:0:0:0:
109,192,16215,1,0,0:0:0:0:
402,192,16215,1,0,0:0:0:0:
36,192,16303,1,0,0:0:0:0:
329,192,16303,1,0,0:0:0:0:
475,192,16303,1,0,0:0:0:0:
256,192,16391,1,0,0:0:0:0:
402,192,16391,1,0,0:0:0:0:
109,192,16479,1,0,0:0:0:0:
256,192,16568,1,0,0:0:0:0:
36,192,16656,1,0,0:0:0:0:
329,192,16656,1,0,0:0:0:0:
475,192,16656,1,0,0:0:0:0:
109,192,16744,1,0,0:0:0:0:
256,192,16744,1,0,0:0:0:0:
402,192,16832,1,0,0:0:0:0:
109,192,16921,1,0,0:0:0:0:
256,192,16921,1,0,0:0:0:0:
36,192,17009,1,0,0:0:0:0:
329,192,17009,1,0,0:0:0:0:
475,192,17009,1,0,0:0:0:0:
109,192,17097,1,0,0:0:0:0:
256,192,17097,1,0,0:0:0:0:
36,192,17185,1,0,0:0:0:0:
402,192,17185,1,0,0:0:0:0:
256,192,17274,1,0,0:0:0:0:
329,192,17274,1,0,0:0:0:0:
36,192,17362,1,0,0:0:0:0:
182,192,17362,1,0,0:0:0:0:
475,192,17362,1,0,0:0:0:0:
109,192,17450,1,0,0:0:0:0:
329,192,17450,1,0,0:0:0:0:
402,192,17538,1,0,0:0:0:0:
182,192,17627,1,0,0:0:0:0:
256,192,17627,1,0,0:0:0:0:
36,192,17715,1,0,0:0:0:0:
329,192,17715,1,0,0:0:0:0:
475,192,17715,1,0,0:0:0:0:
182,192,17803,1,0,0:0:0:0:
256,192,17803,1,0,0:0:0:0:
109,192,17891,1,0,0:0:0:0:
329,192,17979,1,0,0:0:0:0:
36,192,18068,1,0,0:0:0:0:
182,192,18068,1,0,0:0:0:0:
475,192,18068,1,0,0:0:0:0:
256,192,18156,1,0,0:0:0:0:
329,192,18156,1,0,0:0:0:0:
109,192,18244,1,0,0:0:0:0:
402,192,18244,1,0,0:0:0:0:
182,192,18332,1,0,0:0:0:0:
329,192,18332,1,0,0:0:0:0:
36,192,18421,1,0,0:0:0:0:
109,192,18421,1,0,0:0:0:0:
475,192,18421,1,0,0:0:0:0:
256,192,18509,1,0,0:0:0:0:
329,192,18509,1,0,0:0:0:0:
182,192,18597,1,0,0:0:0:0:
475,192,18597,1,0,0:0:0:0:
256,192,18685,1,0,0:0:0:0:
402,192,18685,1,0,0:0:0:0:
36,192,18774,1,0,0:0:0:0:
182,192,18774,1,0,0:0:0:0:
475,192,18774,1,0,0:0:0:0:
109,192,18862,1,0,0:0:0:0:
256,192,18862,1,0,0:0:0:0:
402,192,18950,1,0,0:0:0:0:
182,192,19038,1,0,0:0:0:0:
256,192,19038,1,0,0:0:0:0:
36,192,19127,1,0,0:0:0:0:
329,192,19127,1,0,0:0:0:0:
475,192,19127,1,0,0:0:0:0:
256,192,19215,1,0,0:0:0:0:
402,192,19215,1,0,0:0:0:0:
109,192,19303,1,0,0:0:0:0:
402,192,19391,1,0,0:0:0:0:
36,192,19479,1,0,0:0:0:0:
329,192,19479,1,0,0:0:0:0:
475,192,19479,1,0,0:0:0:0:
109,192,19568,1,0,0:0:0:0:
402,192,19568,1,0,0:0:0:0:
182,192,19656,1,0,0:0:0:0:
256,192,19656,1,0,0:0:0:0:
329,192,19744,1,0,0:0:0:0:
402,192,19744,1,0,0:0:0:0:
36,192,19832,1,0,0:0:0:0:
256,192,19832,1,0,0:0:0:0:
475,192,19832,1,0,0:0:0:0:
109,192,19921,1,0,0:0:0:0:
329,192,19921,1,0,0:0:0:0:
256,192,20009,1,0,0:0:0:0:
402,192,20009,1,0,0:0:0:0:
109,192,20097,1,0,0:0:0:0:
329,192,20097,1,0,0:0:0:0:
182,192,20185,1,0,0:0:0:0:
36,192,20185,1,0,0:0:0:0:
475,192,20185,1,0,0:0:0:0:
109,192,20274,1,0,0:0:0:0:
329,192,20274,1,0,0:0:0:0:
182,192,20362,1,0,0:0:0:0:
256,192,20450,1,0,0:0:0:0:
402,192,20450,1,0,0:0:0:0:
36,192,20538,1,0,0:0:0:0:
182,192,20538,1,0,0:0:0:0:
475,192,20538,1,0,0:0:0:0:
329,192,20627,1,0,0:0:0:0:
402,192,20627,1,0,0:0:0:0:
109,192,20715,1,0,0:0:0:0:
256,192,20803,1,0,0:0:0:0:
182,192,20891,1,0,0:0:0:0:
329,192,20891,1,0,0:0:0:0:
475,192,20891,1,0,0:0:0:0:
36,192,20979,1,0,0:0:0:0:
109,192,20979,1,0,0:0:0:0:
256,192,21068,1,0,0:0:0:0:
402,192,21068,1,0,0:0:0:0:
109,192,21156,1,0,0:0:0:0:
475,192,21156,1,0,0:0:0:0:
36,192,21244,1,0,0:0:0:0:
182,192,21244,1,0,0:0:0:0:
402,192,21244,1,0,0:0:0:0:
329,192,21332,1,0,0:0:0:0:
475,192,21332,1,0,0:0:0:0:
109,192,21421,1,0,0:0:0:0:
256,192,21421,1,0,0:0:0:0:
329,192,21509,1,0,0:0:0:0:
402,192,21509,1,0,0:0:0:0:
36,192,21597,1,0,0:0:0:0:
182,192,21597,1,0,0:0:0:0:
256,192,21597,1,0,0:0:0:0:
475,192,21597,1,0,0:0:0:0:
329,192,21685,1,0,0:0:0:0:
402,192,21685,1,0,0:0:0:0:
109,192,21774,1,0,0:0:0:0:
256,192,21862,1,0,0:0:0:0:
402,192,21862,1,0,0:0:0:0:
36,192,21950,1,0,0:0:0:0:
329,192,21950,1,0,0:0:0:0:
475,192,21950,1,0,0:0:0:0:
182,192,22038,1,0,0:0:0:0:
256,192,22038,1,0,0:0:0:0:
402,192,22127,1,0,0:0:0:0:
182,192,22215,1,0,0:0:0:0:
109,192,22303,1,0,0:0:0:0:
256,192,22303,1,0,0:0:0:0:
402,192,22303,1,0,0:0:0:0:
475,192,22303,1,0,0:0:0:0:
36,192,22391,1,0,0:0:0:0:
329,192,22391,1,0,0:0:0:0:
109,192,22479,1,0,0:0:0:0:
182,192,22479,1,0,0:0:0:0:
329,192,22568,1,0,0:0:0:0:
402,192,22568,1,0,0:0:0:0:
182,192,22656,1,0,0:0:0:0:
256,192,22656,1,0,0:0:0:0:
109,192,22744,1,0,0:0:0:0:
329,192,22744,1,0,0:0:0:0:
182,192,22832,1,0,0:0:0:0:
256,192,22921,1,0,0:0:0:0:
402,192,22921,1,0,0:0:0:0:
109,192,23009,1,0,0:0:0:0:
329,192,23009,1,0,0:0:0:0:
256,192,23097,1,0,0:0:0:0:
475,192,23097,1,0,0:0:0:0:
329,192,23274,1,0,0:0:0:0:
402,192,23274,1,0,0:0:0:0:
182,192,23362,1,0,0:0:0:0:
256,192,23450,1,0,0:0:0:0:
329,192,23450,1,0,0:0:0:0:
256,192,23627,1,0,0:0:0:0:
109,192,23715,1,0,0:0:0:0:
329,192,23715,1,0,0:0:0:0:
256,192,23803,1,0,0:0:0:0:
402,192,23803,1,0,0:0:0:0:
329,192,23891,1,0,0:0:0:0:
182,192,23979,1,0,0:0:0:0:
256,192,23979,1,0,0:0:0:0:
36,192,24068,1,0,0:0:0:0:
329,192,24068,1,0,0:0:0:0:
475,192,24068,1,0,0:0:0:0:
182,192,24156,1,0,0:0:0:0:
256,192,24156,1,0,0:0:0:0:
109,192,24244,1,0,0:0:0:0:
475,192,24244,1,0,0:0:0:0:
256,192,24332,1,0,0:0:0:0:
402,192,24332,1,0,0:0:0:0:
36,192,24421,1,0,0:0:0:0:
182,192,24421,1,0,0:0:0:0:
475,192,24421,1,0,0:0:0:0:
109,192,24509,1,0,0:0:0:0:
256,192,24509,1,0,0:0:0:0:
402,192,24597,1,0,0:0:0:0:
182,192,24685,1,0,0:0:0:0:
256,192,24685,1,0,0:0:0:0:
36,192,24774,1,0,0:0:0:0:
329,192,24774,1,0,0:0:0:0:
475,192,24774,1,0,0:0:0:0:
256,192,24862,1,0,0:0:0:0:
402,192,24862,1,0,0:0:0:0:
109,192,24950,1,0,0:0:0:0:
182,192,25038,1,0,0:0:0:0:
36,192,25127,1,0,0:0:0:0:
329,192,25127,1,0,0:0:0:0:
475,192,25127,1,0,0:0:0:0:
109,192,25215,1,0,0:0:0:0:
256,192,25215,1,0,0:0:0:0:
182,192,25303,1,0,0:0:0:0:
402,192,25303,1,0,0:0:0:0:
109,192,25391,1,0,0:0:0:0:
256,192,25391,1,0,0:0:0:0:
36,192,25479,1,0,0:0:0:0:
329,192,25479,1,0,0:0:0:0:
475,192,25479,1,0,0:0:0:0:
256,192,25568,1,0,0:0:0:0:
402,192,25568,1,0,0:0:0:0:
109,192,25656,1,0,0:0:0:0:
182,192,25656,1,0,0:0:0:0:
329,192,25744,1,0,0:0:0:0:
36,192,25832,1,0,0:0:0:0:
256,192,25832,1,0,0:0:0:0:
475,192,25832,1,0,0:0:0:0:
109,192,25921,1,0,0:0:0:0:
329,192,25921,1,0,0:0:0:0:
402,192,26009,1,0,0:0:0:0:
109,192,26097,1,0,0:0:0:0:
256,192,26097,1,0,0:0:0:0:
36,192,26185,1,0,0:0:0:0:
329,192,26185,1,0,0:0:0:0:
475,192,26185,1,0,0:0:0:0:
256,192,26274,1,0,0:0:0:0:
402,192,26274,1,0,0:0:0:0:
109,192,26362,1,0,0:0:0:0:
182,192,26450,1,0,0:0:0:0:
36,192,26538,1,0,0:0:0:0:
329,192,26538,1,0,0:0:0:0:
475,192,26538,1,0,0:0:0:0:
109,192,26627,1,0,0:0:0:0:
182,192,26627,1,0,0:0:0:0:
256,192,26715,1,0,0:0:0:0:
402,192,26715,1,0,0:0:0:0:
109,192,26803,1,0,0:0:0:0:
182,192,26803,1,0,0:0:0:0:
36,192,26891,1,0,0:0:0:0:
256,192,26891,1,0,0:0:0:0:
475,192,26891,1,0,0:0:0:0:
182,192,26979,1,0,0:0:0:0:
329,192,26979,1,0,0:0:0:0:
256,192,27068,1,0,0:0:0:0:
475,192,27068,1,0,0:0:0:0:
109,192,27156,1,0,0:0:0:0:
329,192,27156,1,0,0:0:0:0:
36,192,27244,1,0,0:0:0:0:
182,192,27244,1,0,0:0:0:0:
475,192,27244,1,0,0:0:0:0:
109,192,27332,1,0,0:0:0:0:
329,192,27332,1,0,0:0:0:0:
402,192,27421,1,0,0:0:0:0:
109,192,27509,1,0,0:0:0:0:
256,192,27509,1,0,0:0:0:0:
36,192,27597,1,0,0:0:0:0:
329,192,27597,1,0,0:0:0:0:
475,192,27597,1,0,0:0:0:0:
182,192,27685,1,0,0:0:0:0:
256,192,27685,1,0,0:0:0:0:
109,192,27774,1,0,0:0:0:0:
402,192,27862,1,0,0:0:0:0:
36,192,27950,1,0,0:0:0:0:
182,192,27950,1,0,0:0:0:0:
475,192,27950,1,0,0:0:0:0:
329,192,28038,1,0,0:0:0:0:
402,192,28038,1,0,0:0:0:0:
109,192,28127,1,0,0:0:0:0:
475,192,28127,1,0,0:0:0:0:
182,192,28215,1,0,0:0:0:0:
256,192,28215,1,0,0:0:0:0:
36,192,28303,1,0,0:0:0:0:
329,192,28303,1,0,0:0:0:0:
475,192,28303,1,0,0:0:0:0:
182,192,28391,1,0,0:0:0:0:
256,192,28391,1,0,0:0:0:0:
109,192,28479,1,0,0:0:0:0:
402,192,28479,1,0,0:0:0:0:
182,192,28568,1,0,0:0:0:0:
329,192,28568,1,0,0:0:0:0:
36,192,28656,1,0,0:0:0:0:
402,192,28656,1,0,0:0:0:0:
475,192,28656,1,0,0:0:0:0:
182,192,28744,1,0,0:0:0:0:
329,192,28744,1,0,0:0:0:0:
402,192,28832,1,0,0:0:0:0:
182,192,28921,1,0,0:0:0:0:
256,192,28921,1,0,0:0:0:0:
36,192,29009,1,0,0:0:0:0:
329,192,29009,1,0,0:0:0:0:
475,192,29009,1,0,0:0:0:0:
256,192,29097,1,0,0:0:0:0:
402,192,29097,1,0,0:0:0:0:
109,192,29185,1,0,0:0:0:0:
256,192,29274,1,0,0:0:0:0:
36,192,29362,1,0,0:0:0:0:
329,192,29362,1,0,0:0:0:0:
475,192,29362,1,0,0:0:0:0:
109,192,29450,1,0,0:0:0:0:
182,192,29450,1,0,0:0:0:0:
256,192,29538,1,0,0:0:0:0:
329,192,29538,1,0,0:0:0:0:
109,192,29627,1,0,0:0:0:0:
182,192,29627,1,0,0:0:0:0:
36,192,29715,1,0,0:0:0:0:
329,192,29715,1,0,0:0:0:0:
475,192,29715,1,0,0:0:0:0:
182,192,29803,1,0,0:0:0:0:
256,192,29803,1,0,0:0:0:0:
109,192,29891,1,0,0:0:0:0:
402,192,29891,1,0,0:0:0:0:
256,192,29979,1,0,0:0:0:0:
329,192,29979,1,0,0:0:0:0:
36,192,30068,1,0,0:0:0:0:
402,192,30068,1,0,0:0:0:0:
475,192,30068,1,0,0:0:0:0:
109,192,30156,1,0,0:0:0:0:
256,192,30156,1,0,0:0:0:0:
402,192,30244,1,0,0:0:0:0:
256,192,30332,1,0,0:0:0:0:
329,192,30332,1,0,0:0:0:0:
36,192,30421,1,0,0:0:0:0:
109,192,30421,1,0,0:0:0:0:
475,192,30421,1,0,0:0:0:0:
182,192,30509,1,0,0:0:0:0:
256,192,30509,1,0,0:0:0:0:
109,192,30597,1,0,0:0:0:0:
182,192,30685,1,0,0:0:0:0:
36,192,30774,1,0,0:0:0:0:
329,192,30774,1,0,0:0:0:0:
402,192,30774,1,0,0:0:0:0:
182,192,30862,1,0,0:0:0:0:
256,192,30862,1,0,0:0:0:0:
329,192,30950,1,0,0:0:0:0:
402,192,30950,1,0,0:0:0:0:
109,192,31038,1,0,0:0:0:0:
182,192,31038,1,0,0:0:0:0:
36,192,31127,1,0,0:0:0:0:
402,192,31127,1,0,0:0:0:0:
475,192,31127,1,0,0:0:0:0:
182,192,31215,1,0,0:0:0:0:
256,192,31215,1,0,0:0:0:0:
36,192,31303,1,0,0:0:0:0:
402,192,31303,1,0,0:0:0:0:
109,192,31391,1,0,0:0:0:0:
256,192,31391,1,0,0:0:0:0:
36,192,31479,1,0,0:0:0:0:
329,192,31479,1,0,0:0:0:0:
475,192,31479,1,0,0:0:0:0:
109,192,31568,1,0,0:0:0:0:
256,192,31568,1,0,0:0:0:0:
402,192,31656,1,0,0:0:0:0:
182,192,31744,1,0,0:0:0:0:
256,192,31744,1,0,0:0:0:0:
36,192,31832,1,0,0:0:0:0:
329,192,31832,1,0,0:0:0:0:
475,192,31832,1,0,0:0:0:0:
182,192,31921,1,0,0:0:0:0:
109,192,32009,1,0,0:0:0:0:
329,192,32097,1,0,0:0:0:0:
36,192,32185,1,0,0:0:0:0:
256,192,32185,1,0,0:0:0:0:
475,192,32185,1,0,0:0:0:0:
109,192,32274,1,0,0:0:0:0:
182,192,32274,1,0,0:0:0:0:
256,192,32362,1,0,0:0:0:0:
329,192,32362,1,0,0:0:0:0:
109,192,32450,1,0,0:0:0:0:
182,192,32450,1,0,0:0:0:0:
36,192,32538,1,0,0:0:0:0:
256,192,32538,1,0,0:0:0:0:
475,192,32538,1,0,0:0:0:0:
109,192,32627,1,0,0:0:0:0:
329,192,32627,1,0,0:0:0:0:
36,192,32715,1,0,0:0:0:0:
182,192,32715,1,0,0:0:0:0:
109,192,32803,1,0,0:0:0:0:
402,192,32803,1,0,0:0:0:0:
36,192,32891,1,0,0:0:0:0:
256,192,32891,1,0,0:0:0:0:
475,192,32891,1,0,0:0:0:0:
109,192,32979,1,0,0:0:0:0:
182,192,32979,1,0,0:0:0:0:
402,192,33068,1,0,0:0:0:0:
109,192,33156,1,0,0:0:0:0:
256,192,33156,1,0,0:0:0:0:
36,192,33244,1,0,0:0:0:0:
329,192,33244,1,0,0:0:0:0:
475,192,33244,1,0,0:0:0:0:
182,192,33332,1,0,0:0:0:0:
256,192,33332,1,0,0:0:0:0:
109,192,33421,1,0,0:0:0:0:
256,192,33509,1,0,0:0:0:0:
36,192,33597,1,0,0:0:0:0:
329,192,33597,1,0,0:0:0:0:
475,192,33597,1,0,0:0:0:0:
109,192,33685,1,0,0:0:0:0:
256,192,33685,1,0,0:0:0:0:
402,192,33774,1,0,0:0:0:0:
109,192,33862,1,0,0:0:0:0:
182,192,33862,1,0,0:0:0:0:
36,192,33950,1,0,0:0:0:0:
329,192,33950,1,0,0:0:0:0:
475,192,33950,1,0,0:0:0:0:
182,192,34038,1,0,0:0:0:0:
256,192,34038,1,0,0:0:0:0:
36,192,34127,1,0,0:0:0:0:
475,192,34127,1,0,0:0:0:0:
182,192,34215,1,0,0:0:0:0:
402,192,34215,1,0,0:0:0:0:
36,192,34303,1,0,0:0:0:0:
109,192,34303,1,0,0:0:0:0:
475,192,34303,1,0,0:0:0:0:
182,192,34391,1,0,0:0:0:0:
329,192,34391,1,0,0:0:0:0:
402,192,34479,1,0,0:0:0:0:
475,192,34479,1,0,0:0:0:0:
109,192,34568,1,0,0:0:0:0:
256,192,34568,1,0,0:0:0:0:
182,192,34656,1,0,0:0:0:0:
402,192,34656,1,0,0:0:0:0:
475,192,34656,1,0,0:0:0:0:
109,192,34744,1,0,0:0:0:0:
256,192,34744,1,0,0:0:0:0:
36,192,34832,1,0,0:0:0:0:
329,192,34832,1,0,0:0:0:0:
109,192,34921,1,0,0:0:0:0:
182,192,34921,1,0,0:0:0:0:
36,192,35009,1,0,0:0:0:0:
402,192,35009,1,0,0:0:0:0:
109,192,35097,1,0,0:0:0:0:
182,192,35097,1,0,0:0:0:0:
36,192,35185,1,0,0:0:0:0:
402,192,35185,1,0,0:0:0:0:
109,192,35274,1,0,0:0:0:0:
475,192,35274,1,0,0:0:0:0:
36,192,35362,1,0,0:0:0:0:
182,192,35362,1,0,0:0:0:0:
402,192,35362,1,0,0:0:0:0:
329,192,35450,1,0,0:0:0:0:
475,192,35450,1,0,0:0:0:0:
109,192,35538,1,0,0:0:0:0:
256,192,35538,1,0,0:0:0:0:
402,192,35627,1,0,0:0:0:0:
475,192,35627,1,0,0:0:0:0:
36,192,35715,1,0,0:0:0:0:
182,192,35715,1,0,0:0:0:0:
329,192,35715,1,0,0:0:0:0:
402,192,35803,1,0,0:0:0:0:
475,192,35803,1,0,0:0:0:0:
182,192,35891,1,0,0:0:0:0:
329,192,35979,1,0,0:0:0:0:
402,192,35979,1,0,0:0:0:0:
36,192,36068,1,0,0:0:0:0:
109,192,36068,1,0,0:0:0:0:
256,192,36068,1,0,0:0:0:0:
182,192,36156,1,0,0:0:0:0:
329,192,36156,1,0,0:0:0:0:
402,192,36244,1,0,0:0:0:0:
329,192,36332,1,0,0:0:0:0:
36,192,36421,1,0,0:0:0:0:
109,192,36421,1,0,0:0:0:0:
475,192,36421,1,0,0:0:0:0:
182,192,36509,1,0,0:0:0:0:
256,192,36509,1,0,0:0:0:0:
402,192,36597,1,0,0:0:0:0:
475,192,36597,1,0,0:0:0:0:
109,192,36685,1,0,0:0:0:0:
329,192,36685,1,0,0:0:0:0:
36,192,36774,1,0,0:0:0:0:
182,192,36774,1,0,0:0:0:0:
475,192,36774,1,0,0:0:0:0:
329,192,36862,1,0,0:0:0:0:
402,192,36862,1,0,0:0:0:0:
109,192,36950,1,0,0:0:0:0:
256,192,36950,1,0,0:0:0:0:
329,192,37038,1,0,0:0:0:0:
475,192,37038,1,0,0:0:0:0:
36,192,37127,1,0,0:0:0:0:
182,192,37127,1,0,0:0:0:0:
402,192,37127,1,0,0:0:0:0:
109,192,37215,1,0,0:0:0:0:
475,192,37215,1,0,0:0:0:0:
256,192,37303,1,0,0:0:0:0:
182,192,37391,1,0,0:0:0:0:
329,192,37391,1,0,0:0:0:0:
36,192,37479,1,0,0:0:0:0:
256,192,37479,1,0,0:0:0:0:
475,192,37479,1,0,0:0:0:0:
329,192,37568,1,0,0:0:0:0:
402,192,37568,1,0,0:0:0:0:
109,192,37656,1,0,0:0:0:0:
329,192,37744,1,0,0:0:0:0:
36,192,37832,1,0,0:0:0:0:
182,192,37832,1,0,0:0:0:0:
475,192,37832,1,0,0:0:0:0:
256,192,37921,1,0,0:0:0:0:
329,192,37921,1,0,0:0:0:0:
109,192,38009,1,0,0:0:0:0:
475,192,38009,1,0,0:0:0:0:
329,192,38097,1,0,0:0:0:0:
402,192,38097,1,0,0:0:0:0:
36,192,38185,1,0,0:0:0:0:
182,192,38185,1,0,0:0:0:0:
475,192,38185,1,0,0:0:0:0:
329,192,38274,1,0,0:0:0:0:
402,192,38274,1,0,0:0:0:0:
109,192,38362,1,0,0:0:0:0:
256,192,38362,1,0,0:0:0:0:
329,192,38450,1,0,0:0:0:0:
475,192,38450,1,0,0:0:0:0:
36,192,38538,1,0,0:0:0:0:
182,192,38538,1,0,0:0:0:0:
402,192,38538,1,0,0:0:0:0:
109,192,38627,1,0,0:0:0:0:
475,192,38627,1,0,0:0:0:0:
182,192,38715,1,0,0:0:0:0:
402,192,38803,1,0,0:0:0:0:
475,192,38803,1,0,0:0:0:0:
36,192,38891,1,0,0:0:0:0:
182,192,38891,1,0,0:0:0:0:
329,192,38891,1,0,0:0:0:0:
256,192,38979,1,0,0:0:0:0:
402,192,38979,1,0,0:0:0:0:
109,192,39068,1,0,0:0:0:0:
402,192,39156,1,0,0:0:0:0:
36,192,39244,1,0,0:0:0:0:
182,192,39244,1,0,0:0:0:0:
475,192,39244,1,0,0:0:0:0:
329,192,39332,1,0,0:0:0:0:
109,192,39421,1,0,0:0:0:0:
256,192,39421,1,0,0:0:0:0:
402,192,39509,1,0,0:0:0:0:
475,192,39509,1,0,0:0:0:0:
36,192,39597,1,0,0:0:0:0:
109,192,39597,1,0,0:0:0:0:
329,192,39597,1,0,0:0:0:0:
182,192,39685,1,0,0:0:0:0:
402,192,39685,1,0,0:0:0:0:
109,192,39774,1,0,0:0:0:0:
329,192,39774,1,0,0:0:0:0:
256,192,39862,1,0,0:0:0:0:
475,192,39862,1,0,0:0:0:0:
36,192,39950,1,0,0:0:0:0:
182,192,39950,1,0,0:0:0:0:
329,192,39950,1,0,0:0:0:0:
256,192,40038,1,0,0:0:0:0:
475,192,40038,1,0,0:0:0:0:
109,192,40127,1,0,0:0:0:0:
329,192,40215,1,0,0:0:0:0:
402,192,40215,1,0,0:0:0:0:
36,192,40303,1,0,0:0:0:0:
182,192,40303,1,0,0:0:0:0:
475,192,40303,1,0,0:0:0:0:
256,192,40391,1,0,0:0:0:0:
329,192,40391,1,0,0:0:0:0:
109,192,40479,1,0,0:0:0:0:
402,192,40568,1,0,0:0:0:0:
36,192,40656,1,0,0:0:0:0:
182,192,40656,1,0,0:0:0:0:
475,192,40656,1,0,0:0:0:0:
109,192,40744,1,0,0:0:0:0:
402,192,40744,1,0,0:0:0:0:
329,192,40832,1,0,0:0:0:0:
475,192,40832,1,0,0:0:0:0:
182,192,40921,1,0,0:0:0:0:
256,192,40921,1,0,0:0:0:0:
36,192,41009,1,0,0:0:0:0:
329,192,41009,1,0,0:0:0:0:
475,192,41009,1,0,0:0:0:0:
182,192,41097,1,0,0:0:0:0:
402,192,41097,1,0,0:0:0:0:
109,192,41185,1,0,0:0:0:0:
256,192,41185,1,0,0:0:0:0:
402,192,41274,1,0,0:0:0:0:
475,192,41274,1,0,0:0:0:0:
36,192,41362,1,0,0:0:0:0:
182,192,41362,1,0,0:0:0:0:
329,192,41362,1,0,0:0:0:0:
402,192,41450,1,0,0:0:0:0:
475,192,41450,1,0,0:0:0:0:
109,192,41538,1,0,0:0:0:0:
256,192,41627,1,0,0:0:0:0:
329,192,41627,1,0,0:0:0:0:
36,192,41715,1,0,0:0:0:0:
182,192,41715,1,0,0:0:0:0:
475,192,41715,1,0,0:0:0:0:
329,192,41803,1,0,0:0:0:0:
402,192,41803,1,0,0:0:0:0:
109,192,41891,1,0,0:0:0:0:
256,192,41979,1,0,0:0:0:0:
36,192,42068,1,0,0:0:0:0:
182,192,42068,1,0,0:0:0:0:
475,192,42068,1,0,0:0:0:0:
256,192,42156,1,0,0:0:0:0:
329,192,42156,1,0,0:0:0:0:
402,192,42244,1,0,0:0:0:0:
475,192,42244,1,0,0:0:0:0:
109,192,42332,1,0,0:0:0:0:
256,192,42332,1,0,0:0:0:0:
36,192,42421,1,0,0:0:0:0:
182,192,42421,1,0,0:0:0:0:
475,192,42421,1,0,0:0:0:0:
256,192,42509,1,0,0:0:0:0:
402,192,42509,1,0,0:0:0:0:
109,192,42597,1,0,0:0:0:0:
329,192,42597,1,0,0:0:0:0:
256,192,42685,1,0,0:0:0:0:
475,192,42685,1,0,0:0:0:0:
36,192,42774,1,0,0:0:0:0:
182,192,42774,1,0,0:0:0:0:
329,192,42774,1,0,0:0:0:0:
256,192,42862,1,0,0:0:0:0:
475,192,42862,1,0,0:0:0:0:
109,192,42950,1,0,0:0:0:0:
329,192,43038,1,0,0:0:0:0:
402,192,43038,1,0,0:0:0:0:
36,192,43127,1,0,0:0:0:0:
182,192,43127,1,0,0:0:0:0:
475,192,43127,1,0,0:0:0:0:
256,192,43215,1,0,0:0:0:0:
329,192,43215,1,0,0:0:0:0:
109,192,43303,1,0,0:0:0:0:
329,192,43391,1,0,0:0:0:0:
36,192,43479,1,0,0:0:0:0:
182,192,43479,1,0,0:0:0:0:
402,192,43479,1,0,0:0:0:0:
475,192,43479,1,0,0:0:0:0:
256,192,43568,1,0,0:0:0:0:
329,192,43568,1,0,0:0:0:0:
182,192,43656,1,0,0:0:0:0:
402,192,43656,1,0,0:0:0:0:
109,192,43744,1,0,0:0:0:0:
329,192,43744,1,0,0:0:0:0:
36,192,43832,1,0,0:0:0:0:
256,192,43832,1,0,0:0:0:0:
475,192,43832,1,0,0:0:0:0:
329,192,43921,1,0,0:0:0:0:
402,192,43921,1,0,0:0:0:0:
109,192,44009,1,0,0:0:0:0:
182,192,44009,1,0,0:0:0:0:
256,192,44097,1,0,0:0:0:0:
475,192,44097,1,0,0:0:0:0:
36,192,44185,1,0,0:0:0:0:
182,192,44185,1,0,0:0:0:0:
329,192,44185,1,0,0:0:0:0:
109,192,44274,1,0,0:0:0:0:
475,192,44274,1,0,0:0:0:0:
256,192,44362,1,0,0:0:0:0:
329,192,44450,1,0,0:0:0:0:
402,192,44450,1,0,0:0:0:0:
36,192,44538,1,0,0:0:0:0:
182,192,44538,1,0,0:0:0:0:
256,192,44538,1,0,0:0:0:0:
402,192,44627,1,0,0:0:0:0:
475,192,44627,1,0,0:0:0:0:
109,192,44715,1,0,0:0:0:0:
256,192,44803,1,0,0:0:0:0:
36,192,44891,1,0,0:0:0:0:
182,192,44891,1,0,0:0:0:0:
402,192,44891,1,0,0:0:0:0:
256,192,44979,1,0,0:0:0:0:
475,192,44979,1,0,0:0:0:0:
109,192,45068,1,0,0:0:0:0:
329,192,45068,1,0,0:0:0:0:
182,192,45156,1,0,0:0:0:0:
402,192,45156,1,0,0:0:0:0:
36,192,45244,1,0,0:0:0:0:
256,192,45244,1,0,0:0:0:0:
475,192,45244,1,0,0:0:0:0:
329,192,45332,1,0,0:0:0:0:
402,192,45332,1,0,0:0:0:0:
109,192,45421,1,0,0:0:0:0:
256,192,45421,1,0,0:0:0:0:
402,192,45509,1,0,0:0:0:0:
475,192,45509,1,0,0:0:0:0:
36,192,45597,1,0,0:0:0:0:
182,192,45597,1,0,0:0:0:0:
329,192,45597,1,0,0:0:0:0:
109,192,45685,1,0,0:0:0:0:
475,192,45685,1,0,0:0:0:0:
182,192,45774,1,0,0:0:0:0:
329,192,45862,1,0,0:0:0:0:
402,192,45862,1,0,0:0:0:0:
36,192,45950,1,0,0:0:0:0:
182,192,45950,1,0,0:0:0:0:
475,192,45950,1,0,0:0:0:0:
256,192,46038,1,0,0:0:0:0:
329,192,46038,1,0,0:0:0:0:
36,192,46127,1,0,0:0:0:0:
109,192,46127,1,0,0:0:0:0:
402,192,46215,1,0,0:0:0:0:
182,192,46303,1,0,0:0:0:0:
256,192,46303,1,0,0:0:0:0:
475,192,46303,1,0,0:0:0:0:
109,192,46391,1,0,0:0:0:0:
402,192,46391,1,0,0:0:0:0:
182,192,46479,1,0,0:0:0:0:
329,192,46479,1,0,0:0:0:0:
109,192,46568,1,0,0:0:0:0:
256,192,46568,1,0,0:0:0:0:
36,192,46656,1,0,0:0:0:0:
182,192,46656,1,0,0:0:0:0:
329,192,46656,1,0,0:0:0:0:
109,192,46744,1,0,0:0:0:0:
256,192,46744,1,0,0:0:0:0:
36,192,46832,1,0,0:0:0:0:
182,192,46832,1,0,0:0:0:0:
109,192,46921,1,0,0:0:0:0:
256,192,46921,1,0,0:0:0:0:
36,192,47009,1,0,0:0:0:0:
182,192,47009,1,0,0:0:0:0:
329,192,47009,1,0,0:0:0:0:
475,192,47009,1,0,0:0:0:0:
256,192,47097,1,0,0:0:0:0:
402,192,47097,1,0,0:0:0:0:
329,192,47185,1,0,0:0:0:0:
256,192,47274,1,0,0:0:0:0:
402,192,47274,1,0,0:0:0:0:
182,192,47362,1,0,0:0:0:0:
475,192,47362,1,0,0:0:0:0:
256,192,47450,1,0,0:0:0:0:
402,192,47450,1,0,0:0:0:0:
329,192,47538,1,0,0:0:0:0:
256,192,47627,1,0,0:0:0:0:
36,192,47715,1,0,0:0:0:0:
182,192,47715,1,0,0:0:0:0:
475,192,47715,1,0,0:0:0:0:
109,192,47803,1,0,0:0:0:0:
256,192,47803,1,0,0:0:0:0:
182,192,47891,1,0,0:0:0:0:
329,192,47891,1,0,0:0:0:0:
256,192,47979,1,0,0:0:0:0:
402,192,47979,1,0,0:0:0:0:
36,192,48068,1,0,0:0:0:0:
182,192,48068,1,0,0:0:0:0:
475,192,48068,1,0,0:0:0:0:
256,192,48156,1,0,0:0:0:0:
402,192,48156,1,0,0:0:0:0:
182,192,48244,1,0,0:0:0:0:
329,192,48244,1,0,0:0:0:0:
109,192,48332,1,0,0:0:0:0:
256,192,48332,1,0,0:0:0:0:
36,192,48421,1,0,0:0:0:0:
329,192,48421,1,0,0:0:0:0:
475,192,48421,1,0,0:0:0:0:
109,192,48509,1,0,0:0:0:0:
256,192,48509,1,0,0:0:0:0:
182,192,48597,1,0,0:0:0:0:
256,192,48685,1,0,0:0:0:0:
402,192,48685,1,0,0:0:0:0:
36,192,48774,1,0,0:0:0:0:
182,192,48774,1,0,0:0:0:0:
329,192,48774,1,0,0:0:0:0:
256,192,48862,1,0,0:0:0:0:
402,192,48862,1,0,0:0:0:0:
329,192,48950,1,0,0:0:0:0:
256,192,49038,1,0,0:0:0:0:
36,192,49127,1,0,0:0:0:0:
182,192,49127,1,0,0:0:0:0:
329,192,49127,1,0,0:0:0:0:
109,192,49215,1,0,0:0:0:0:
256,192,49215,1,0,0:0:0:0:
182,192,49303,1,0,0:0:0:0:
329,192,49303,1,0,0:0:0:0:
256,192,49391,1,0,0:0:0:0:
402,192,49391,1,0,0:0:0:0:
36,192,49479,1,0,0:0:0:0:
182,192,49479,1,0,0:0:0:0:
475,192,49479,1,0,0:0:0:0:
256,192,49568,1,0,0:0:0:0:
402,192,49568,1,0,0:0:0:0:
182,192,49656,1,0,0:0:0:0:
329,192,49656,1,0,0:0:0:0:
109,192,49744,1,0,0:0:0:0:
256,192,49744,1,0,0:0:0:0:
36,192,49832,1,0,0:0:0:0:
329,192,49832,1,0,0:0:0:0:
475,192,49832,1,0,0:0:0:0:
109,192,49921,1,0,0:0:0:0:
256,192,49921,1,0,0:0:0:0:
329,192,50009,1,0,0:0:0:0:
256,192,50097,1,0,0:0:0:0:
402,192,50097,1,0,0:0:0:0:
36,192,50185,1,0,0:0:0:0:
182,192,50185,1,0,0:0:0:0:
329,192,50185,1,0,0:0:0:0:
256,192,50274,1,0,0:0:0:0:
402,192,50274,1,0,0:0:0:0:
329,192,50362,1,0,0:0:0:0:
256,192,50450,1,0,0:0:0:0:
36,192,50538,1,0,0:0:0:0:
182,192,50538,1,0,0:0:0:0:
329,192,50538,1,0,0:0:0:0:
475,192,50538,1,0,0:0:0:0:
109,192,50627,1,0,0:0:0:0:
256,192,50627,1,0,0:0:0:0:
182,192,50715,1,0,0:0:0:0:
329,192,50715,1,0,0:0:0:0:
256,192,50803,1,0,0:0:0:0:
402,192,50803,1,0,0:0:0:0:
36,192,50891,1,0,0:0:0:0:
182,192,50891,1,0,0:0:0:0:
475,192,50891,1,0,0:0:0:0:
256,192,50979,1,0,0:0:0:0:
402,192,50979,1,0,0:0:0:0:
182,192,51068,1,0,0:0:0:0:
329,192,51068,1,0,0:0:0:0:
109,192,51156,1,0,0:0:0:0:
256,192,51156,1,0,0:0:0:0:
36,192,51244,1,0,0:0:0:0:
329,192,51244,1,0,0:0:0:0:
475,192,51244,1,0,0:0:0:0:
109,192,51332,1,0,0:0:0:0:
256,192,51332,1,0,0:0:0:0:
182,192,51421,1,0,0:0:0:0:
256,192,51509,1,0,0:0:0:0:
402,192,51509,1,0,0:0:0:0:
36,192,51597,1,0,0:0:0:0:
182,192,51597,1,0,0:0:0:0:
329,192,51597,1,0,0:0:0:0:
256,192,51685,1,0,0:0:0:0:
402,192,51685,1,0,0:0:0:0:
329,192,51774,1,0,0:0:0:0:
402,192,51862,1,0,0:0:0:0:
36,192,51950,1,0,0:0:0:0:
182,192,51950,1,0,0:0:0:0:
475,192,51950,1,0,0:0:0:0:
256,192,52038,1,0,0:0:0:0:
402,192,52038,1,0,0:0:0:0:
182,192,52127,1,0,0:0:0:0:
329,192,52127,1,0,0:0:0:0:
109,192,52215,1,0,0:0:0:0:
256,192,52215,1,0,0:0:0:0:
36,192,52303,1,0,0:0:0:0:
329,192,52303,1,0,0:0:0:0:
475,192,52303,1,0,0:0:0:0:
109,192,52391,1,0,0:0:0:0:
256,192,52391,1,0,0:0:0:0:
182,192,52479,1,0,0:0:0:0:
329,192,52479,1,0,0:0:0:0:
256,192,52568,1,0,0:0:0:0:
402,192,52568,1,0,0:0:0:0:
36,192,52656,1,0,0:0:0:0:
182,192,52656,1,0,0:0:0:0:
475,192,52656,1,0,0:0:0:0:
256,192,52744,1,0,0:0:0:0:
402,192,52744,1,0,0:0:0:0:
36,192,52832,1,0,0:0:0:0:
182,192,52832,1,0,0:0:0:0:
109,192,52921,1,0,0:0:0:0:
256,192,52921,1,0,0:0:0:0:
36,192,53009,1,0,0:0:0:0:
182,192,53009,1,0,0:0:0:0:
329,192,53009,1,0,0:0:0:0:
256,192,53097,1,0,0:0:0:0:
402,192,53097,1,0,0:0:0:0:
182,192,53185,1,0,0:0:0:0:
329,192,53185,1,0,0:0:0:0:
256,192,53274,1,0,0:0:0:0:
36,192,53362,1,0,0:0:0:0:
182,192,53362,1,0,0:0:0:0:
329,192,53362,1,0,0:0:0:0:
109,192,53450,1,0,0:0:0:0:
36,192,53538,1,0,0:0:0:0:
182,192,53538,1,0,0:0:0:0:
329,192,53538,1,0,0:0:0:0:
256,192,53627,1,0,0:0:0:0:
36,192,53715,1,0,0:0:0:0:
329,192,53715,1,0,0:0:0:0:
475,192,53715,1,0,0:0:0:0:
109,192,53803,1,0,0:0:0:0:
256,192,53803,1,0,0:0:0:0:
182,192,53891,1,0,0:0:0:0:
475,192,53891,1,0,0:0:0:0:
256,192,53979,1,0,0:0:0:0:
402,192,53979,1,0,0:0:0:0:
36,192,54068,1,0,0:0:0:0:
182,192,54068,1,0,0:0:0:0:
475,192,54068,1,0,0:0:0:0:
256,192,54156,1,0,0:0:0:0:
402,192,54156,1,0,0:0:0:0:
182,192,54244,1,0,0:0:0:0:
329,192,54244,1,0,0:0:0:0:
109,192,54332,1,0,0:0:0:0:
256,192,54332,1,0,0:0:0:0:
36,192,54421,1,0,0:0:0:0:
182,192,54421,1,0,0:0:0:0:
329,192,54421,1,0,0:0:0:0:
109,192,54509,1,0,0:0:0:0:
256,192,54509,1,0,0:0:0:0:
182,192,54597,1,0,0:0:0:0:
329,192,54597,1,0,0:0:0:0:
402,192,54685,1,0,0:0:0:0:
36,192,54774,1,0,0:0:0:0:
329,192,54774,1,0,0:0:0:0:
475,192,54774,1,0,0:0:0:0:
256,192,54862,1,0,0:0:0:0:
402,192,54862,1,0,0:0:0:0:
36,192,54950,1,0,0:0:0:0:
329,192,54950,1,0,0:0:0:0:
109,192,55038,1,0,0:0:0:0:
256,192,55038,1,0,0:0:0:0:
36,192,55127,1,0,0:0:0:0:
329,192,55127,1,0,0:0:0:0:
475,192,55127,1,0,0:0:0:0:
109,192,55215,1,0,0:0:0:0:
256,192,55215,1,0,0:0:0:0:
182,192,55303,1,0,0:0:0:0:
329,192,55303,1,0,0:0:0:0:
256,192,55391,1,0,0:0:0:0:
402,192,55391,1,0,0:0:0:0:
36,192,55479,1,0,0:0:0:0:
182,192,55479,1,0,0:0:0:0:
475,192,55479,1,0,0:0:0:0:
109,192,55568,1,0,0:0:0:0:
256,192,55568,1,0,0:0:0:0:
182,192,55656,1,0,0:0:0:0:
329,192,55656,1,0,0:0:0:0:
256,192,55744,1,0,0:0:0:0:
402,192,55744,1,0,0:0:0:0:
182,192,55832,1,0,0:0:0:0:
329,192,55832,1,0,0:0:0:0:
475,192,55832,1,0,0:0:0:0:
109,192,55921,1,0,0:0:0:0:
256,192,55921,1,0,0:0:0:0:
182,192,56009,1,0,0:0:0:0:
329,192,56009,1,0,0:0:0:0:
256,192,56097,1,0,0:0:0:0:
36,192,56185,1,0,0:0:0:0:
182,192,56185,1,0,0:0:0:0:
329,192,56185,1,0,0:0:0:0:
475,192,56185,1,0,0:0:0:0:
256,192,56274,1,0,0:0:0:0:
402,192,56274,1,0,0:0:0:0:
36,192,56362,1,0,0:0:0:0:
182,192,56362,1,0,0:0:0:0:
329,192,56362,1,0,0:0:0:0:
109,192,56450,1,0,0:0:0:0:
256,192,56450,1,0,0:0:0:0:
36,192,56538,1,0,0:0:0:0:
182,192,56538,1,0,0:0:0:0:
109,192,56627,1,0,0:0:0:0:
256,192,56627,1,0,0:0:0:0:
182,192,56715,1,0,0:0:0:0:
329,192,56715,1,0,0:0:0:0:
109,192,56803,1,0,0:0:0:0:
256,192,56803,1,0,0:0:0:0:
402,192,56803,1,0,0:0:0:0:
329,192,56891,1,0,0:0:0:0:
475,192,56891,1,0,0:0:0:0:
256,192,56979,1,0,0:0:0:0:
402,192,56979,1,0,0:0:0:0:
329,192,57068,1,0,0:0:0:0:
109,192,57156,1,0,0:0:0:0:
256,192,57156,1,0,0:0:0:0:
402,192,57156,1,0,0:0:0:0:
182,192,57244,1,0,0:0:0:0:
109,192,57332,1,0,0:0:0:0:
256,192,57332,1,0,0:0:0:0:
329,192,57421,1,0,0:0:0:0:
256,192,57509,1,0,0:0:0:0:
402,192,57509,1,0,0:0:0:0:
36,192,57597,1,0,0:0:0:0:
182,192,57597,1,0,0:0:0:0:
329,192,57597,1,0,0:0:0:0:
109,192,57685,1,0,0:0:0:0:
256,192,57685,1,0,0:0:0:0:
182,192,57774,1,0,0:0:0:0:
329,192,57774,1,0,0:0:0:0:
109,192,57862,1,0,0:0:0:0:
256,192,57862,1,0,0:0:0:0:
402,192,57862,1,0,0:0:0:0:
36,192,57950,1,0,0:0:0:0:
182,192,57950,1,0,0:0:0:0:
475,192,57950,1,0,0:0:0:0:
329,192,58038,1,0,0:0:0:0:
402,192,58038,1,0,0:0:0:0:
256,192,58127,1,0,0:0:0:0:
475,192,58127,1,0,0:0:0:0:
329,192,58215,1,0,0:0:0:0:
402,192,58215,1,0,0:0:0:0:
182,192,58303,1,0,0:0:0:0:
256,192,58303,1,0,0:0:0:0:
402,192,58391,1,0,0:0:0:0:
256,192,58479,1,0,0:0:0:0:
329,192,58479,1,0,0:0:0:0:
182,192,58568,1,0,0:0:0:0:
402,192,58568,1,0,0:0:0:0:
256,192,58656,1,0,0:0:0:0:
329,192,58656,1,0,0:0:0:0:
109,192,58744,1,0,0:0:0:0:
182,192,58744,1,0,0:0:0:0:
329,192,58832,1,0,0:0:0:0:
402,192,58832,1,0,0:0:0:0:
256,192,58921,1,0,0:0:0:0:
109,192,59009,1,0,0:0:0:0:
182,192,59009,1,0,0:0:0:0:
36,192,59097,1,0,0:0:0:0:
256,192,59097,1,0,0:0:0:0:
109,192,59185,1,0,0:0:0:0:
182,192,59185,1,0,0:0:0:0:
36,192,59274,1,0,0:0:0:0:
256,192,59274,1,0,0:0:0:0:
182,192,59362,1,0,0:0:0:0:
402,192,59362,1,0,0:0:0:0:
256,192,59450,1,0,0:0:0:0:
329,192,59450,1,0,0:0:0:0:
182,192,59538,1,0,0:0:0:0:
402,192,59538,1,0,0:0:0:0:
256,192,59627,1,0,0:0:0:0:
329,192,59627,1,0,0:0:0:0:
182,192,59715,1,0,0:0:0:0:
402,192,59715,1,0,0:0:0:0:
256,192,59803,1,0,0:0:0:0:
329,192,59891,1,0,0:0:0:0:
402,192,59891,1,0,0:0:0:0:
256,192,59979,1,0,0:0:0:0:
475,192,59979,1,0,0:0:0:0:
329,192,60068,1,0,0:0:0:0:
402,192,60068,1,0,0:0:0:0:
256,192,60156,1,0,0:0:0:0:
475,192,60156,1,0,0:0:0:0:
329,192,60244,1,0,0:0:0:0:
402,192,60244,1,0,0:0:0:0:
256,192,60332,1,0,0:0:0:0:
329,192,60421,1,0,0:0:0:0:
402,192,60421,1,0,0:0:0:0:
256,192,60509,1,0,0:0:0:0:
475,192,60509,1,0,0:0:0:0:
329,192,60597,1,0,0:0:0:0:
402,192,60597,1,0,0:0:0:0:
256,192,60685,1,0,0:0:0:0:
475,192,60685,1,0,0:0:0:0:
109,192,60774,1,0,0:0:0:0:
182,192,60774,1,0,0:0:0:0:
36,192,60862,1,0,0:0:0:0:
256,192,60862,1,0,0:0:0:0:
109,192,60950,1,0,0:0:0:0:
182,192,60950,1,0,0:0:0:0:
36,192,61038,1,0,0:0:0:0:
256,192,61038,1,0,0:0:0:0:
182,192,61127,1,0,0:0:0:0:
329,192,61127,1,0,0:0:0:0:
256,192,61215,1,0,0:0:0:0:
182,192,61303,1,0,0:0:0:0:
402,192,61303,1,0,0:0:0:0:
256,192,61391,1,0,0:0:0:0:
329,192,61391,1,0,0:0:0:0:
182,192,61479,1,0,0:0:0:0:
402,192,61479,1,0,0:0:0:0:
256,192,61568,1,0,0:0:0:0:
329,192,61568,1,0,0:0:0:0:
109,192,61656,1,0,0:0:0:0:
182,192,61656,1,0,0:0:0:0:
256,192,61744,1,0,0:0:0:0:
329,192,61832,1,0,0:0:0:0:
402,192,61832,1,0,0:0:0:0:
256,192,61921,1,0,0:0:0:0:
475,192,61921,1,0,0:0:0:0:
329,192,62009,1,0,0:0:0:0:
402,192,62009,1,0,0:0:0:0:
256,192,62097,1,0,0:0:0:0:
475,192,62097,1,0,0:0:0:0:
109,192,62185,1,0,0:0:0:0:
329,192,62185,1,0,0:0:0:0:
182,192,62274,1,0,0:0:0:0:
256,192,62274,1,0,0:0:0:0:
109,192,62362,1,0,0:0:0:0:
329,192,62362,1,0,0:0:0:0:
182,192,62450,1,0,0:0:0:0:
256,192,62450,1,0,0:0:0:0:
109,192,62538,1,0,0:0:0:0:
329,192,62538,1,0,0:0:0:0:
36,192,62627,1,0,0:0:0:0:
109,192,62715,1,0,0:0:0:0:
182,192,62715,1,0,0:0:0:0:
256,192,62803,1,0,0:0:0:0:
329,192,62803,1,0,0:0:0:0:
402,192,62891,1,0,0:0:0:0:
475,192,62891,1,0,0:0:0:0:
182,192,62979,1,0,0:0:0:0:
329,192,62979,1,0,0:0:0:0:
256,192,63068,1,0,0:0:0:0:
402,192,63068,1,0,0:0:0:0:
329,192,63156,1,0,0:0:0:0:
256,192,63244,1,0,0:0:0:0:
402,192,63244,1,0,0:0:0:0:
182,192,63332,1,0,0:0:0:0:
329,192,63332,1,0,0:0:0:0:
256,192,63421,1,0,0:0:0:0:
402,192,63421,1,0,0:0:0:0:
329,192,63509,1,0,0:0:0:0:
475,192,63509,1,0,0:0:0:0:
36,192,63597,1,0,0:0:0:0:
256,192,63597,1,0,0:0:0:0:
402,192,63597,1,0,0:0:0:0:
182,192,63685,1,0,0:0:0:0:
329,192,63685,1,0,0:0:0:0:
109,192,63774,1,0,0:0:0:0:
256,192,63774,1,0,0:0:0:0:
182,192,63862,1,0,0:0:0:0:
329,192,63862,1,0,0:0:0:0:
256,192,63950,1,0,0:0:0:0:
402,192,63950,1,0,0:0:0:0:
329,192,64038,1,0,0:0:0:0:
256,192,64127,1,0,0:0:0:0:
402,192,64127,1,0,0:0:0:0:
182,192,64215,1,0,0:0:0:0:
329,192,64215,1,0,0:0:0:0:
256,192,64303,1,0,0:0:0:0:
402,192,64303,1,0,0:0:0:0:
329,192,64391,1,0,0:0:0:0:
475,192,64391,1,0,0:0:0:0:
256,192,64479,1,0,0:0:0:0:
402,192,64479,1,0,0:0:0:0:
329,192,64568,1,0,0:0:0:0:
109,192,64656,1,0,0:0:0:0:
256,192,64656,1,0,0:0:0:0:
36,192,64744,1,0,0:0:0:0:
182,192,64744,1,0,0:0:0:0:
109,192,64832,1,0,0:0:0:0:
256,192,64832,1,0,0:0:0:0:
182,192,64921,1,0,0:0:0:0:
329,192,64921,1,0,0:0:0:0:
109,192,65009,1,0,0:0:0:0:
256,192,65009,1,0,0:0:0:0:
36,192,65097,1,0,0:0:0:0:
182,192,65097,1,0,0:0:0:0:
109,192,65185,1,0,0:0:0:0:
256,192,65185,1,0,0:0:0:0:
182,192,65274,1,0,0:0:0:0:
329,192,65274,1,0,0:0:0:0:
109,192,65362,1,0,0:0:0:0:
256,192,65362,1,0,0:0:0:0:
182,192,65450,1,0,0:0:0:0:
109,192,65538,1,0,0:0:0:0:
256,192,65538,1,0,0:0:0:0:
36,192,65627,1,0,0:0:0:0:
182,192,65627,1,0,0:0:0:0:
109,192,65715,1,0,0:0:0:0:
256,192,65715,1,0,0:0:0:0:
182,192,65803,1,0,0:0:0:0:
329,192,65803,1,0,0:0:0:0:
109,192,65891,1,0,0:0:0:0:
256,192,65891,1,0,0:0:0:0:
182,192,65979,1,0,0:0:0:0:
109,192,66068,1,0,0:0:0:0:
256,192,66068,1,0,0:0:0:0:
182,192,66156,1,0,0:0:0:0:
329,192,66156,1,0,0:0:0:0:
109,192,66244,1,0,0:0:0:0:
256,192,66244,1,0,0:0:0:0:
36,192,66332,1,0,0:0:0:0:
182,192,66332,1,0,0:0:0:0:
109,192,66421,1,0,0:0:0:0:
256,192,66421,1,0,0:0:0:0:
182,192,66509,1,0,0:0:0:0:
329,192,66509,1,0,0:0:0:0:
109,192,66597,1,0,0:0:0:0:
256,192,66597,1,0,0:0:0:0:
36,192,66685,1,0,0:0:0:0:
182,192,66685,1,0,0:0:0:0:
109,192,66774,1,0,0:0:0:0:
256,192,66774,1,0,0:0:0:0:
402,192,66862,1,0,0:0:0:0:
329,192,66950,1,0,0:0:0:0:
475,192,66950,1,0,0:0:0:0:
256,192,67038,1,0,0:0:0:0:
402,192,67038,1,0,0:0:0:0:
182,192,67127,1,0,0:0:0:0:
329,192,67127,1,0,0:0:0:0:
256,192,67215,1,0,0:0:0:0:
402,192,67215,1,0,0:0:0:0:
182,192,67303,1,0,0:0:0:0:
329,192,67303,1,0,0:0:0:0:
256,192,67391,1,0,0:0:0:0:
182,192,67479,1,0,0:0:0:0:
329,192,67479,1,0,0:0:0:0:
109,192,67568,1,0,0:0:0:0:
256,192,67568,1,0,0:0:0:0:
182,192,67656,1,0,0:0:0:0:
329,192,67656,1,0,0:0:0:0:
256,192,67744,1,0,0:0:0:0:
402,192,67744,1,0,0:0:0:0:
329,192,67832,1,0,0:0:0:0:
475,192,67832,1,0,0:0:0:0:
256,192,67921,1,0,0:0:0:0:
402,192,67921,1,0,0:0:0:0:
182,192,68009,1,0,0:0:0:0:
329,192,68009,1,0,0:0:0:0:
109,192,68097,1,0,0:0:0:0:
256,192,68097,1,0,0:0:0:0:
182,192,68185,1,0,0:0:0:0:
329,192,68185,1,0,0:0:0:0:
256,192,68274,1,0,0:0:0:0:
182,192,68362,1,0,0:0:0:0:
329,192,68362,1,0,0:0:0:0:
109,192,68450,1,0,0:0:0:0:
256,192,68450,1,0,0:0:0:0:
182,192,68538,1,0,0:0:0:0:
329,192,68538,1,0,0:0:0:0:
256,192,68627,1,0,0:0:0:0:
402,192,68627,1,0,0:0:0:0:
329,192,68715,1,0,0:0:0:0:
475,192,68715,1,0,0:0:0:0:
402,192,68803,1,0,0:0:0:0:
329,192,68891,1,0,0:0:0:0:
475,192,68891,1,0,0:0:0:0:
256,192,68979,1,0,0:0:0:0:
402,192,68979,1,0,0:0:0:0:
182,192,69068,1,0,0:0:0:0:
329,192,69068,1,0,0:0:0:0:
109,192,69156,1,0,0:0:0:0:
256,192,69156,1,0,0:0:0:0:
36,192,69244,1,0,0:0:0:0:
182,192,69244,1,0,0:0:0:0:
329,192,69244,1,0,0:0:0:0:
475,192,69244,1,0,0:0:0:0:
109,192,69332,1,0,0:0:0:0:
402,192,69332,1,0,0:0:0:0:
36,192,69421,1,0,0:0:0:0:
182,192,69421,1,0,0:0:0:0:
329,192,69421,1,0,0:0:0:0:
109,192,69509,1,0,0:0:0:0:
402,192,69509,1,0,0:0:0:0:
182,192,69597,1,0,0:0:0:0:
329,192,69597,1,0,0:0:0:0:
475,192,69597,1,0,0:0:0:0:
256,192,69685,1,0,0:0:0:0:
402,192,69685,1,0,0:0:0:0:
36,192,69774,1,0,0:0:0:0:
182,192,69774,1,0,0:0:0:0:
329,192,69774,1,0,0:0:0:0:
109,192,69862,1,0,0:0:0:0:
402,192,69862,1,0,0:0:0:0:
182,192,69950,1,0,0:0:0:0:
329,192,69950,1,0,0:0:0:0:
475,192,69950,1,0,0:0:0:0:
256,192,70038,1,0,0:0:0:0:
402,192,70038,1,0,0:0:0:0:
36,192,70127,1,0,0:0:0:0:
182,192,70127,1,0,0:0:0:0:
329,192,70127,1,0,0:0:0:0:
109,192,70215,1,0,0:0:0:0:
256,192,70215,1,0,0:0:0:0:
182,192,70303,1,0,0:0:0:0:
329,192,70303,1,0,0:0:0:0:
109,192,70391,1,0,0:0:0:0:
402,192,70391,1,0,0:0:0:0:
182,192,70479,1,0,0:0:0:0:
329,192,70479,1,0,0:0:0:0:
475,192,70479,1,0,0:0:0:0:
109,192,70568,1,0,0:0:0:0:
402,192,70568,1,0,0:0:0:0:
36,192,70656,1,0,0:0:0:0:
182,192,70656,1,0,0:0:0:0:
329,192,70656,1,0,0:0:0:0:
109,192,70744,1,0,0:0:0:0:
402,192,70744,1,0,0:0:0:0:
182,192,70832,1,0,0:0:0:0:
329,192,70832,1,0,0:0:0:0:
475,192,70832,1,0,0:0:0:0:
109,192,70921,1,0,0:0:0:0:
402,192,70921,1,0,0:0:0:0:
36,192,71009,1,0,0:0:0:0:
182,192,71009,1,0,0:0:0:0:
329,192,71009,1,0,0:0:0:0:
109,192,71097,1,0,0:0:0:0:
256,192,71097,1,0,0:0:0:0:
182,192,71185,1,0,0:0:0:0:
329,192,71185,1,0,0:0:0:0:
475,192,71185,1,0,0:0:0:0:
109,192,71274,1,0,0:0:0:0:
402,192,71274,1,0,0:0:0:0:
36,192,71362,1,0,0:0:0:0:
182,192,71362,1,0,0:0:0:0:
329,192,71362,1,0,0:0:0:0:
109,192,71450,1,0,0:0:0:0:
256,192,71450,1,0,0:0:0:0:
36,192,71538,1,0,0:0:0:0:
182,192,71538,1,0,0:0:0:0:
329,192,71538,1,0,0:0:0:0:
109,192,71627,1,0,0:0:0:0:
256,192,71627,1,0,0:0:0:0:
182,192,71715,1,0,0:0:0:0:
329,192,71715,1,0,0:0:0:0:
109,192,71803,1,0,0:0:0:0:
402,192,71803,1,0,0:0:0:0:
182,192,71891,1,0,0:0:0:0:
329,192,71891,1,0,0:0:0:0:
475,192,71891,1,0,0:0:0:0:
109,192,71979,1,0,0:0:0:0:
402,192,71979,1,0,0:0:0:0:
36,192,72068,1,0,0:0:0:0:
182,192,72068,1,0,0:0:0:0:
329,192,72068,1,0,0:0:0:0:
475,192,72068,1,0,0:0:0:0:
109,192,72156,1,0,0:0:0:0:
402,192,72156,1,0,0:0:0:0:
182,192,72244,1,0,0:0:0:0:
329,192,72244,1,0,0:0:0:0:
475,192,72244,1,0,0:0:0:0:
109,192,72332,1,0,0:0:0:0:
256,192,72332,1,0,0:0:0:0:
402,192,72332,1,0,0:0:0:0:
36,192,72421,1,0,0:0:0:0:
182,192,72421,1,0,0:0:0:0:
329,192,72421,1,0,0:0:0:0:
109,192,72509,1,0,0:0:0:0:
256,192,72509,1,0,0:0:0:0:
36,192,72597,1,0,0:0:0:0:
182,192,72597,1,0,0:0:0:0:
329,192,72597,1,0,0:0:0:0:
109,192,72685,1,0,0:0:0:0:
402,192,72685,1,0,0:0:0:0:
182,192,72774,1,0,0:0:0:0:
329,192,72774,1,0,0:0:0:0:
475,192,72774,1,0,0:0:0:0:
256,192,72862,1,0,0:0:0:0:
402,192,72862,1,0,0:0:0:0:
36,192,72950,1,0,0:0:0:0:
182,192,72950,1,0,0:0:0:0:
329,192,72950,1,0,0:0:0:0:
109,192,73038,1,0,0:0:0:0:
256,192,73038,1,0,0:0:0:0:
182,192,73127,1,0,0:0:0:0:
329,192,73127,1,0,0:0:0:0:
109,192,73215,1,0,0:0:0:0:
402,192,73215,1,0,0:0:0:0:
36,192,73303,1,0,0:0:0:0:
182,192,73303,1,0,0:0:0:0:
329,192,73303,1,0,0:0:0:0:
109,192,73391,1,0,0:0:0:0:
256,192,73391,1,0,0:0:0:0:
402,192,73391,1,0,0:0:0:0:
182,192,73479,1,0,0:0:0:0:
329,192,73479,1,0,0:0:0:0:
475,192,73479,1,0,0:0:0:0:
109,192,73568,1,0,0:0:0:0:
402,192,73568,1,0,0:0:0:0:
36,192,73656,1,0,0:0:0:0:
182,192,73656,1,0,0:0:0:0:
329,192,73656,1,0,0:0:0:0:
109,192,73744,1,0,0:0:0:0:
402,192,73744,1,0,0:0:0:0:
182,192,73832,1,0,0:0:0:0:
329,192,73832,1,0,0:0:0:0:
475,192,73832,1,0,0:0:0:0:
109,192,73921,1,0,0:0:0:0:
256,192,73921,1,0,0:0:0:0:
36,192,74009,1,0,0:0:0:0:
182,192,74009,1,0,0:0:0:0:
329,192,74009,1,0,0:0:0:0:
109,192,74097,1,0,0:0:0:0:
402,192,74097,1,0,0:0:0:0:
182,192,74185,1,0,0:0:0:0:
329,192,74185,1,0,0:0:0:0:
475,192,74185,1,0,0:0:0:0:
402,192,74274,1,0,0:0:0:0:
36,192,74362,1,0,0:0:0:0:
182,192,74362,1,0,0:0:0:0:
329,192,74362,1,0,0:0:0:0:
109,192,74450,1,0,0:0:0:0:
256,192,74450,1,0,0:0:0:0:
182,192,74538,1,0,0:0:0:0:
329,192,74538,1,0,0:0:0:0:
475,192,74538,1,0,0:0:0:0:
109,192,74627,1,0,0:0:0:0:
402,192,74627,1,0,0:0:0:0:
36,192,74715,1,0,0:0:0:0:
182,192,74715,1,0,0:0:0:0:
329,192,74715,1,0,0:0:0:0:
109,192,74803,1,0,0:0:0:0:
402,192,74803,1,0,0:0:0:0:
36,192,74891,1,0,0:0:0:0:
182,192,74891,1,0,0:0:0:0:
329,192,74891,1,0,0:0:0:0:
256,192,74979,1,0,0:0:0:0:
402,192,74979,1,0,0:0:0:0:
182,192,75068,1,0,0:0:0:0:
329,192,75068,1,0,0:0:0:0:
256,192,75156,1,0,0:0:0:0:
402,192,75156,1,0,0:0:0:0:
182,192,75244,1,0,0:0:0:0:
329,192,75244,1,0,0:0:0:0:
402,192,75332,1,0,0:0:0:0:
329,192,75421,1,0,0:0:0:0:
475,192,75421,1,0,0:0:0:0:
256,192,75509,1,0,0:0:0:0:
402,192,75509,1,0,0:0:0:0:
329,192,75597,1,0,0:0:0:0:
475,192,75597,1,0,0:0:0:0:
256,192,75685,1,0,0:0:0:0:
402,192,75685,1,0,0:0:0:0:
182,192,75774,1,0,0:0:0:0:
329,192,75774,1,0,0:0:0:0:
256,192,75862,1,0,0:0:0:0:
36,192,75950,1,0,0:0:0:0:
182,192,75950,1,0,0:0:0:0:
109,192,76038,1,0,0:0:0:0:
256,192,76038,1,0,0:0:0:0:
182,192,76127,1,0,0:0:0:0:
329,192,76127,1,0,0:0:0:0:
256,192,76215,1,0,0:0:0:0:
402,192,76215,1,0,0:0:0:0:
36,192,76303,1,0,0:0:0:0:
182,192,76303,1,0,0:0:0:0:
329,192,76303,1,0,0:0:0:0:
109,192,76391,1,0,0:0:0:0:
256,192,76391,1,0,0:0:0:0:
182,192,76479,1,0,0:0:0:0:
329,192,76479,1,0,0:0:0:0:
256,192,76568,1,0,0:0:0:0:
402,192,76568,1,0,0:0:0:0:
182,192,76656,1,0,0:0:0:0:
329,192,76656,1,0,0:0:0:0:
256,192,76744,1,0,0:0:0:0:
182,192,76832,1,0,0:0:0:0:
329,192,76832,1,0,0:0:0:0:
256,192,76921,1,0,0:0:0:0:
402,192,76921,1,0,0:0:0:0:
329,192,77009,1,0,0:0:0:0:
475,192,77009,1,0,0:0:0:0:
256,192,77097,1,0,0:0:0:0:
402,192,77097,1,0,0:0:0:0:
329,192,77185,1,0,0:0:0:0:
475,192,77185,1,0,0:0:0:0:
402,192,77274,1,0,0:0:0:0:
182,192,77362,1,0,0:0:0:0:
329,192,77362,1,0,0:0:0:0:
109,192,77450,1,0,0:0:0:0:
256,192,77450,1,0,0:0:0:0:
36,192,77538,1,0,0:0:0:0:
182,192,77538,1,0,0:0:0:0:
109,192,77627,1,0,0:0:0:0:
256,192,77627,1,0,0:0:0:0:
36,192,77715,1,0,0:0:0:0:
182,192,77715,1,0,0:0:0:0:
329,192,77715,1,0,0:0:0:0:
109,192,77803,1,0,0:0:0:0:
256,192,77803,1,0,0:0:0:0:
36,192,77891,1,0,0:0:0:0:
182,192,77891,1,0,0:0:0:0:
109,192,77979,1,0,0:0:0:0:
256,192,77979,1,0,0:0:0:0:
182,192,78068,1,0,0:0:0:0:
329,192,78068,1,0,0:0:0:0:
256,192,78156,1,0,0:0:0:0:
329,192,78244,1,0,0:0:0:0:
475,192,78244,1,0,0:0:0:0:
256,192,78332,1,0,0:0:0:0:
402,192,78332,1,0,0:0:0:0:
182,192,78421,1,0,0:0:0:0:
329,192,78421,1,0,0:0:0:0:
475,192,78421,1,0,0:0:0:0:
256,192,78509,1,0,0:0:0:0:
402,192,78509,1,0,0:0:0:0:
182,192,78597,1,0,0:0:0:0:
329,192,78597,1,0,0:0:0:0:
256,192,78685,1,0,0:0:0:0:
36,192,78774,1,0,0:0:0:0:
182,192,78774,1,0,0:0:0:0:
109,192,78862,1,0,0:0:0:0:
256,192,78862,1,0,0:0:0:0:
182,192,78950,1,0,0:0:0:0:
329,192,78950,1,0,0:0:0:0:
109,192,79038,1,0,0:0:0:0:
256,192,79038,1,0,0:0:0:0:
36,192,79127,1,0,0:0:0:0:
182,192,79127,1,0,0:0:0:0:
109,192,79215,1,0,0:0:0:0:
256,192,79215,1,0,0:0:0:0:
36,192,79303,1,0,0:0:0:0:
182,192,79303,1,0,0:0:0:0:
109,192,79391,1,0,0:0:0:0:
256,192,79391,1,0,0:0:0:0:
182,192,79479,1,0,0:0:0:0:
329,192,79479,1,0,0:0:0:0:
256,192,79568,1,0,0:0:0:0:
182,192,79656,1,0,0:0:0:0:
329,192,79656,1,0,0:0:0:0:
256,192,79744,1,0,0:0:0:0:
402,192,79744,1,0,0:0:0:0:
182,192,79832,1,0,0:0:0:0:
329,192,79832,1,0,0:0:0:0:
256,192,79921,1,0,0:0:0:0:
402,192,79921,1,0,0:0:0:0:
36,192,80009,1,0,0:0:0:0:
329,192,80009,1,0,0:0:0:0:
475,192,80009,1,0,0:0:0:0:
402,192,80097,1,0,0:0:0:0:
329,192,80185,1,0,0:0:0:0:
475,192,80185,1,0,0:0:0:0:
256,192,80274,1,0,0:0:0:0:
402,192,80274,1,0,0:0:0:0:
256,192,80362,1,0,0:0:0:0:
329,192,80391,1,0,0:0:0:0:
182,192,80391,1,0,0:0:0:0:
402,192,80421,1,0,0:0:0:0:
109,192,80421,1,0,0:0:0:0:
36,192,80450,1,0,0:0:0:0:
475,192,80450,1,0,0:0:0:0:
402,192,80479,1,0,0:0:0:0:
109,192,80479,1,0,0:0:0:0:
329,192,80509,1,0,0:0:0:0:
182,192,80509,1,0,0:0:0:0:
256,192,80538,1,0,0:0:0:0:
402,192,80715,1,0,0:0:0:0:
109,192,80803,1,0,0:0:0:0:
402,192,80891,1,0,0:0:0:0:
109,192,81068,1,0,0:0:0:0:
402,192,81244,1,0,0:0:0:0:
109,192,81421,1,0,0:0:0:0:
402,192,81774,1,0,0:0:0:0:
182,192,81950,1,0,0:0:0:0:
329,192,81950,1,0,0:0:0:0:
256,192,83009,1,0,0:0:0:0:
36,192,83362,1,0,0:0:0:0:
182,192,83362,1,0,0:0:0:0:
329,192,83362,1,0,0:0:0:0:
475,192,83362,1,0,0:0:0:0:
109,192,83450,1,0,0:0:0:0:
256,192,83450,1,0,0:0:0:0:
402,192,83450,1,0,0:0:0:0:
36,192,83538,1,0,0:0:0:0:
182,192,83538,1,0,0:0:0:0:
329,192,83538,1,0,0:0:0:0:
256,192,83627,1,0,0:0:0:0:
402,192,83627,1,0,0:0:0:0:
475,192,83627,1,0,0:0:0:0:
36,192,83715,1,0,0:0:0:0:
109,192,83715,1,0,0:0:0:0:
182,192,83715,1,0,0:0:0:0:
329,192,83715,1,0,0:0:0:0:
256,192,83803,1,0,0:0:0:0:
475,192,83803,1,0,0:0:0:0:
36,192,83891,1,0,0:0:0:0:
182,192,83891,1,0,0:0:0:0:
329,192,83891,1,0,0:0:0:0:
256,192,83979,1,0,0:0:0:0:
402,192,83979,1,0,0:0:0:0:
475,192,83979,1,0,0:0:0:0:
36,192,84068,1,0,0:0:0:0:
109,192,84068,1,0,0:0:0:0:
182,192,84068,1,0,0:0:0:0:
329,192,84068,1,0,0:0:0:0:
256,192,84156,1,0,0:0:0:0:
402,192,84156,1,0,0:0:0:0:
109,192,84244,1,0,0:0:0:0:
475,192,84244,1,0,0:0:0:0:
329,192,84332,1,0,0:0:0:0:
402,192,84332,1,0,0:0:0:0:
36,192,84421,1,0,0:0:0:0:
256,192,84421,1,0,0:0:0:0:
182,192,84509,1,0,0:0:0:0:
475,192,84509,1,0,0:0:0:0:
36,192,84597,1,0,0:0:0:0:
109,192,84597,1,0,0:0:0:0:
329,192,84597,1,0,0:0:0:0:
182,192,84685,1,0,0:0:0:0:
402,192,84685,1,0,0:0:0:0:
36,192,84774,1,0,0:0:0:0:
475,192,84774,1,0,0:0:0:0:
182,192,84862,1,0,0:0:0:0:
402,192,84862,1,0,0:0:0:0:
109,192,84950,1,0,0:0:0:0:
329,192,84950,1,0,0:0:0:0:
36,192,85038,1,0,0:0:0:0:
256,192,85038,1,0,0:0:0:0:
109,192,85127,1,0,0:0:0:0:
329,192,85127,1,0,0:0:0:0:
36,192,85215,1,0,0:0:0:0:
256,192,85215,1,0,0:0:0:0:
109,192,85303,1,0,0:0:0:0:
475,192,85303,1,0,0:0:0:0:
36,192,85391,1,0,0:0:0:0:
256,192,85391,1,0,0:0:0:0:
182,192,85479,1,0,0:0:0:0:
402,192,85479,1,0,0:0:0:0:
36,192,85568,1,0,0:0:0:0:
256,192,85568,1,0,0:0:0:0:
109,192,85656,1,0,0:0:0:0:
475,192,85656,1,0,0:0:0:0:
36,192,85744,1,0,0:0:0:0:
182,192,85744,1,0,0:0:0:0:
109,192,85832,1,0,0:0:0:0:
402,192,85832,1,0,0:0:0:0:
256,192,85921,1,0,0:0:0:0:
475,192,85921,1,0,0:0:0:0:
109,192,86009,1,0,0:0:0:0:
329,192,86009,1,0,0:0:0:0:
36,192,86097,1,0,0:0:0:0:
402,192,86097,1,0,0:0:0:0:
182,192,86185,1,0,0:0:0:0:
329,192,86185,1,0,0:0:0:0:
36,192,86274,1,0,0:0:0:0:
475,192,86274,1,0,0:0:0:0:
109,192,86362,1,0,0:0:0:0:
256,192,86362,1,0,0:0:0:0:
36,192,86450,1,0,0:0:0:0:
182,192,86450,1,0,0:0:0:0:
475,192,86450,1,0,0:0:0:0:
109,192,86538,1,0,0:0:0:0:
256,192,86538,1,0,0:0:0:0:
182,192,86627,1,0,0:0:0:0:
475,192,86627,1,0,0:0:0:0:
109,192,86715,1,0,0:0:0:0:
402,192,86715,1,0,0:0:0:0:
329,192,86803,1,0,0:0:0:0:
475,192,86803,1,0,0:0:0:0:
36,192,86891,1,0,0:0:0:0:
256,192,86891,1,0,0:0:0:0:
402,192,86891,1,0,0:0:0:0:
182,192,86979,1,0,0:0:0:0:
475,192,86979,1,0,0:0:0:0:
36,192,87068,1,0,0:0:0:0:
329,192,87068,1,0,0:0:0:0:
402,192,87068,1,0,0:0:0:0:
109,192,87156,1,0,0:0:0:0:
256,192,87156,1,0,0:0:0:0:
36,192,87244,1,0,0:0:0:0:
182,192,87244,1,0,0:0:0:0:
402,192,87244,1,0,0:0:0:0:
109,192,87332,1,0,0:0:0:0:
329,192,87332,1,0,0:0:0:0:
182,192,87421,1,0,0:0:0:0:
475,192,87421,1,0,0:0:0:0:
109,192,87509,1,0,0:0:0:0:
329,192,87509,1,0,0:0:0:0:
256,192,87597,1,0,0:0:0:0:
402,192,87597,1,0,0:0:0:0:
36,192,87685,1,0,0:0:0:0:
329,192,87685,1,0,0:0:0:0:
182,192,87774,1,0,0:0:0:0:
475,192,87774,1,0,0:0:0:0:
329,192,87862,1,0,0:0:0:0:
402,192,87862,1,0,0:0:0:0:
36,192,87950,1,0,0:0:0:0:
256,192,87950,1,0,0:0:0:0:
475,192,87950,1,0,0:0:0:0:
109,192,88038,1,0,0:0:0:0:
402,192,88038,1,0,0:0:0:0:
329,192,88127,1,0,0:0:0:0:
475,192,88127,1,0,0:0:0:0:
36,192,88215,1,0,0:0:0:0:
402,192,88215,1,0,0:0:0:0:
182,192,88303,1,0,0:0:0:0:
475,192,88303,1,0,0:0:0:0:
36,192,88391,1,0,0:0:0:0:
402,192,88391,1,0,0:0:0:0:
109,192,88479,1,0,0:0:0:0:
256,192,88479,1,0,0:0:0:0:
402,192,88568,1,0,0:0:0:0:
36,192,88656,1,0,0:0:0:0:
182,192,88656,1,0,0:0:0:0:
475,192,88656,1,0,0:0:0:0:
109,192,88744,1,0,0:0:0:0:
329,192,88744,1,0,0:0:0:0:
36,192,88832,1,0,0:0:0:0:
475,192,88832,1,0,0:0:0:0:
182,192,88921,1,0,0:0:0:0:
329,192,88921,1,0,0:0:0:0:
36,192,89009,1,0,0:0:0:0:
402,192,89009,1,0,0:0:0:0:
182,192,89097,1,0,0:0:0:0:
256,192,89097,1,0,0:0:0:0:
109,192,89185,1,0,0:0:0:0:
402,192,89185,1,0,0:0:0:0:
256,192,89274,1,0,0:0:0:0:
475,192,89274,1,0,0:0:0:0:
109,192,89362,1,0,0:0:0:0:
402,192,89362,1,0,0:0:0:0:
256,192,89450,1,0,0:0:0:0:
475,192,89450,1,0,0:0:0:0:
182,192,89538,1,0,0:0:0:0:
402,192,89538,1,0,0:0:0:0:
109,192,89627,1,0,0:0:0:0:
256,192,89627,1,0,0:0:0:0:
36,192,89715,1,0,0:0:0:0:
475,192,89715,1,0,0:0:0:0:
256,192,89803,1,0,0:0:0:0:
329,192,89803,1,0,0:0:0:0:
182,192,89891,1,0,0:0:0:0:
475,192,89891,1,0,0:0:0:0:
329,192,89979,1,0,0:0:0:0:
402,192,89979,1,0,0:0:0:0:
36,192,90068,1,0,0:0:0:0:
475,192,90068,1,0,0:0:0:0:
109,192,90156,1,0,0:0:0:0:
329,192,90156,1,0,0:0:0:0:
182,192,90244,1,0,0:0:0:0:
402,192,90244,1,0,0:0:0:0:
256,192,90332,1,0,0:0:0:0:
475,192,90332,1,0,0:0:0:0:
36,192,90421,1,0,0:0:0:0:
329,192,90421,1,0,0:0:0:0:
256,192,90509,1,0,0:0:0:0:
475,192,90509,1,0,0:0:0:0:
182,192,90597,1,0,0:0:0:0:
402,192,90597,1,0,0:0:0:0:
36,192,90685,1,0,0:0:0:0:
256,192,90685,1,0,0:0:0:0:
182,192,90774,1,0,0:0:0:0:
329,192,90774,1,0,0:0:0:0:
36,192,90862,1,0,0:0:0:0:
256,192,90862,1,0,0:0:0:0:
109,192,90950,1,0,0:0:0:0:
402,192,90950,1,0,0:0:0:0:
36,192,91038,1,0,0:0:0:0:
256,192,91038,1,0,0:0:0:0:
182,192,91127,1,0,0:0:0:0:
402,192,91127,1,0,0:0:0:0:
36,192,91215,1,0,0:0:0:0:
256,192,91215,1,0,0:0:0:0:
182,192,91303,1,0,0:0:0:0:
402,192,91303,1,0,0:0:0:0:
109,192,91391,1,0,0:0:0:0:
256,192,91391,1,0,0:0:0:0:
36,192,91479,1,0,0:0:0:0:
402,192,91479,1,0,0:0:0:0:
109,192,91568,1,0,0:0:0:0:
329,192,91568,1,0,0:0:0:0:
475,192,91568,1,0,0:0:0:0:
36,192,91656,1,0,0:0:0:0:
402,192,91656,1,0,0:0:0:0:
109,192,91744,1,0,0:0:0:0:
475,192,91744,1,0,0:0:0:0:
182,192,91832,1,0,0:0:0:0:
329,192,91832,1,0,0:0:0:0:
256,192,91921,1,0,0:0:0:0:
475,192,91921,1,0,0:0:0:0:
109,192,92009,1,0,0:0:0:0:
402,192,92009,1,0,0:0:0:0:
256,192,92097,1,0,0:0:0:0:
475,192,92097,1,0,0:0:0:0:
182,192,92185,1,0,0:0:0:0:
402,192,92185,1,0,0:0:0:0:
256,192,92274,1,0,0:0:0:0:
475,192,92274,1,0,0:0:0:0:
36,192,92362,1,0,0:0:0:0:
329,192,92362,1,0,0:0:0:0:
109,192,92450,1,0,0:0:0:0:
256,192,92450,1,0,0:0:0:0:
475,192,92450,1,0,0:0:0:0:
36,192,92538,1,0,0:0:0:0:
182,192,92538,1,0,0:0:0:0:
109,192,92627,1,0,0:0:0:0:
475,192,92627,1,0,0:0:0:0:
36,192,92715,1,0,0:0:0:0:
256,192,92715,1,0,0:0:0:0:
402,192,92715,1,0,0:0:0:0:
182,192,92803,1,0,0:0:0:0:
329,192,92803,1,0,0:0:0:0:
36,192,92891,1,0,0:0:0:0:
256,192,92891,1,0,0:0:0:0:
475,192,92891,1,0,0:0:0:0:
182,192,92979,1,0,0:0:0:0:
402,192,92979,1,0,0:0:0:0:
36,192,93068,1,0,0:0:0:0:
475,192,93068,1,0,0:0:0:0:
182,192,93156,1,0,0:0:0:0:
329,192,93156,1,0,0:0:0:0:
36,192,93244,1,0,0:0:0:0:
256,192,93244,1,0,0:0:0:0:
475,192,93244,1,0,0:0:0:0:
182,192,93332,1,0,0:0:0:0:
402,192,93332,1,0,0:0:0:0:
109,192,93421,1,0,0:0:0:0:
256,192,93421,1,0,0:0:0:0:
182,192,93509,1,0,0:0:0:0:
329,192,93509,1,0,0:0:0:0:
36,192,93597,1,0,0:0:0:0:
256,192,93597,1,0,0:0:0:0:
475,192,93597,1,0,0:0:0:0:
256,192,93685,1,0,0:0:0:0:
402,192,93685,1,0,0:0:0:0:
329,192,93774,1,0,0:0:0:0:
475,192,93774,1,0,0:0:0:0:
256,192,93862,1,0,0:0:0:0:
402,192,93862,1,0,0:0:0:0:
182,192,93950,1,0,0:0:0:0:
329,192,93950,1,0,0:0:0:0:
109,192,94038,1,0,0:0:0:0:
402,192,94038,1,0,0:0:0:0:
256,192,94127,1,0,0:0:0:0:
329,192,94127,1,0,0:0:0:0:
109,192,94215,1,0,0:0:0:0:
36,192,94303,1,0,0:0:0:0:
329,192,94303,1,0,0:0:0:0:
109,192,94391,1,0,0:0:0:0:
402,192,94391,1,0,0:0:0:0:
329,192,94479,1,0,0:0:0:0:
475,192,94479,1,0,0:0:0:0:
256,192,94568,1,0,0:0:0:0:
402,192,94568,1,0,0:0:0:0:
329,192,94656,1,0,0:0:0:0:
475,192,94656,1,0,0:0:0:0:
109,192,94744,1,0,0:0:0:0:
256,192,94744,1,0,0:0:0:0:
182,192,94832,1,0,0:0:0:0:
329,192,94832,1,0,0:0:0:0:
109,192,94921,1,0,0:0:0:0:
256,192,94921,1,0,0:0:0:0:
36,192,95009,1,0,0:0:0:0:
329,192,95009,1,0,0:0:0:0:
109,192,95097,1,0,0:0:0:0:
256,192,95097,1,0,0:0:0:0:
182,192,95185,1,0,0:0:0:0:
329,192,95185,1,0,0:0:0:0:
109,192,95274,1,0,0:0:0:0:
256,192,95274,1,0,0:0:0:0:
182,192,95362,1,0,0:0:0:0:
329,192,95362,1,0,0:0:0:0:
256,192,95450,1,0,0:0:0:0:
402,192,95450,1,0,0:0:0:0:
182,192,95538,1,0,0:0:0:0:
329,192,95538,1,0,0:0:0:0:
256,192,95627,1,0,0:0:0:0:
402,192,95627,1,0,0:0:0:0:
182,192,95715,1,0,0:0:0:0:
329,192,95715,1,0,0:0:0:0:
109,192,95803,1,0,0:0:0:0:
256,192,95803,1,0,0:0:0:0:
36,192,95891,1,0,0:0:0:0:
329,192,95891,1,0,0:0:0:0:
109,192,95979,1,0,0:0:0:0:
256,192,95979,1,0,0:0:0:0:
402,192,95979,1,0,0:0:0:0:
36,192,96068,1,0,0:0:0:0:
182,192,96068,1,0,0:0:0:0:
109,192,96156,1,0,0:0:0:0:
256,192,96156,1,0,0:0:0:0:
182,192,96244,1,0,0:0:0:0:
329,192,96244,1,0,0:0:0:0:
109,192,96332,1,0,0:0:0:0:
402,192,96332,1,0,0:0:0:0:
182,192,96421,1,0,0:0:0:0:
329,192,96421,1,0,0:0:0:0:
256,192,96509,1,0,0:0:0:0:
402,192,96509,1,0,0:0:0:0:
182,192,96597,1,0,0:0:0:0:
329,192,96597,1,0,0:0:0:0:
256,192,96685,1,0,0:0:0:0:
402,192,96685,1,0,0:0:0:0:
36,192,96774,1,0,0:0:0:0:
182,192,96774,1,0,0:0:0:0:
329,192,96774,1,0,0:0:0:0:
109,192,96862,1,0,0:0:0:0:
256,192,96862,1,0,0:0:0:0:
182,192,96950,1,0,0:0:0:0:
475,192,96950,1,0,0:0:0:0:
256,192,97038,1,0,0:0:0:0:
402,192,97038,1,0,0:0:0:0:
182,192,97127,1,0,0:0:0:0:
475,192,97127,1,0,0:0:0:0:
109,192,97215,1,0,0:0:0:0:
402,192,97215,1,0,0:0:0:0:
36,192,97303,1,0,0:0:0:0:
182,192,97303,1,0,0:0:0:0:
109,192,97391,1,0,0:0:0:0:
256,192,97391,1,0,0:0:0:0:
182,192,97479,1,0,0:0:0:0:
329,192,97479,1,0,0:0:0:0:
109,192,97568,1,0,0:0:0:0:
256,192,97568,1,0,0:0:0:0:
182,192,97656,1,0,0:0:0:0:
329,192,97656,1,0,0:0:0:0:
109,192,97744,1,0,0:0:0:0:
402,192,97744,1,0,0:0:0:0:
36,192,97832,1,0,0:0:0:0:
475,192,97832,1,0,0:0:0:0:
256,192,97921,1,0,0:0:0:0:
402,192,97921,1,0,0:0:0:0:
36,192,98009,1,0,0:0:0:0:
329,192,98009,1,0,0:0:0:0:
256,192,98097,1,0,0:0:0:0:
402,192,98097,1,0,0:0:0:0:
36,192,98185,1,0,0:0:0:0:
182,192,98185,1,0,0:0:0:0:
109,192,98274,1,0,0:0:0:0:
256,192,98274,1,0,0:0:0:0:
329,192,98362,1,0,0:0:0:0:
475,192,98362,1,0,0:0:0:0:
256,192,98450,1,0,0:0:0:0:
402,192,98450,1,0,0:0:0:0:
329,192,98538,1,0,0:0:0:0:
475,192,98538,1,0,0:0:0:0:
109,192,98627,1,0,0:0:0:0:
256,192,98627,1,0,0:0:0:0:
182,192,98715,1,0,0:0:0:0:
329,192,98715,1,0,0:0:0:0:
109,192,98803,1,0,0:0:0:0:
256,192,98803,1,0,0:0:0:0:
402,192,98803,1,0,0:0:0:0:
36,192,98891,1,0,0:0:0:0:
182,192,98891,1,0,0:0:0:0:
329,192,98891,1,0,0:0:0:0:
475,192,98891,1,0,0:0:0:0:
109,192,98979,1,0,0:0:0:0:
402,192,98979,1,0,0:0:0:0:
182,192,99068,1,0,0:0:0:0:
329,192,99068,1,0,0:0:0:0:
109,192,99156,1,0,0:0:0:0:
402,192,99156,1,0,0:0:0:0:
182,192,99244,1,0,0:0:0:0:
329,192,99244,1,0,0:0:0:0:
256,192,99332,1,0,0:0:0:0:
402,192,99332,1,0,0:0:0:0:
182,192,99421,1,0,0:0:0:0:
329,192,99421,1,0,0:0:0:0:
109,192,99509,1,0,0:0:0:0:
256,192,99509,1,0,0:0:0:0:
36,192,99597,1,0,0:0:0:0:
182,192,99597,1,0,0:0:0:0:
329,192,99597,1,0,0:0:0:0:
256,192,99685,1,0,0:0:0:0:
402,192,99685,1,0,0:0:0:0:
36,192,99715,1,0,0:0:0:0:
329,192,99774,1,0,0:0:0:0:
475,192,99774,1,0,0:0:0:0:
36,192,99832,1,0,0:0:0:0:
256,192,99862,1,0,0:0:0:0:
402,192,99862,1,0,0:0:0:0:
36,192,99950,1,0,0:0:0:0:
182,192,99950,1,0,0:0:0:0:
109,192,100038,1,0,0:0:0:0:
256,192,100038,1,0,0:0:0:0:
182,192,100127,1,0,0:0:0:0:
329,192,100127,1,0,0:0:0:0:
109,192,100215,1,0,0:0:0:0:
402,192,100215,1,0,0:0:0:0:
182,192,100303,1,0,0:0:0:0:
329,192,100303,1,0,0:0:0:0:
256,192,100421,1,0,0:0:0:0:
109,192,100421,1,0,0:0:0:0:
182,192,100538,1,0,0:0:0:0:
329,192,100538,1,0,0:0:0:0:
402,192,100538,1,0,0:0:0:0:
36,192,100656,1,0,0:0:0:0:
109,192,100656,1,0,0:0:0:0:
256,192,100656,1,0,0:0:0:0:
329,192,100774,1,0,0:0:0:0:
182,192,100891,1,0,0:0:0:0:
36,192,100891,1,0,0:0:0:0:
402,192,100891,1,0,0:0:0:0:
475,192,100891,1,0,0:0:0:0:
36,192,101009,1,0,0:0:0:0:
109,192,101009,1,0,0:0:0:0:
256,192,101009,1,0,0:0:0:0:
329,192,101009,1,0,0:0:0:0:
182,192,101127,1,0,0:0:0:0:
475,192,101127,1,0,0:0:0:0:
256,192,101244,1,0,0:0:0:0:
329,192,101244,1,0,0:0:0:0:
402,192,101244,1,0,0:0:0:0:
36,192,101362,1,0,0:0:0:0:
109,192,101362,1,0,0:0:0:0:
182,192,101362,1,0,0:0:0:0:
475,192,101362,1,0,0:0:0:0:
256,192,101479,1,0,0:0:0:0:
329,192,101479,1,0,0:0:0:0:
182,192,101597,1,0,0:0:0:0:
36,192,101597,1,0,0:0:0:0:
475,192,101597,1,0,0:0:0:0:
109,192,101715,1,0,0:0:0:0:
256,192,101715,1,0,0:0:0:0:
329,192,101715,1,0,0:0:0:0:
475,192,101715,1,0,0:0:0:0:
402,192,101832,1,0,0:0:0:0:
36,192,101832,1,0,0:0:0:0:
109,192,101950,1,0,0:0:0:0:
256,192,101950,1,0,0:0:0:0:
329,192,101950,1,0,0:0:0:0:
36,192,102068,1,0,0:0:0:0:
182,192,102068,1,0,0:0:0:0:
402,192,102068,1,0,0:0:0:0:
475,192,102068,1,0,0:0:0:0:
109,192,102185,1,0,0:0:0:0:
182,192,102303,1,0,0:0:0:0:
256,192,102303,1,0,0:0:0:0:
329,192,102303,1,0,0:0:0:0:
36,192,102421,1,0,0:0:0:0:
402,192,102421,1,0,0:0:0:0:
475,192,102421,1,0,0:0:0:0:
36,192,102538,1,0,0:0:0:0:
329,192,102538,1,0,0:0:0:0:
36,192,102656,1,0,0:0:0:0:
256,192,102656,1,0,0:0:0:0:
36,192,102774,1,0,0:0:0:0:
182,192,102774,1,0,0:0:0:0:
475,192,102774,1,0,0:0:0:0:
256,192,102891,1,0,0:0:0:0:
329,192,102891,1,0,0:0:0:0:
109,192,103009,1,0,0:0:0:0:
182,192,103009,1,0,0:0:0:0:
402,192,103009,1,0,0:0:0:0:
36,192,103127,1,0,0:0:0:0:
256,192,103127,1,0,0:0:0:0:
329,192,103127,1,0,0:0:0:0:
475,192,103127,1,0,0:0:0:0:
109,192,103244,1,0,0:0:0:0:
402,192,103244,1,0,0:0:0:0:
182,192,103362,1,0,0:0:0:0:
256,192,103362,1,0,0:0:0:0:
475,192,103362,1,0,0:0:0:0:
36,192,103479,1,0,0:0:0:0:
109,192,103479,1,0,0:0:0:0:
329,192,103479,1,0,0:0:0:0:
182,192,103597,1,0,0:0:0:0:
36,192,103715,1,0,0:0:0:0:
256,192,103715,1,0,0:0:0:0:
329,192,103715,1,0,0:0:0:0:
36,192,103832,1,0,0:0:0:0:
182,192,103832,1,0,0:0:0:0:
402,192,103832,1,0,0:0:0:0:
475,192,103832,1,0,0:0:0:0:
109,192,103950,1,0,0:0:0:0:
256,192,103950,1,0,0:0:0:0:
182,192,104068,1,0,0:0:0:0:
329,192,104068,1,0,0:0:0:0:
402,192,104068,1,0,0:0:0:0:
36,192,104185,1,0,0:0:0:0:
256,192,104185,1,0,0:0:0:0:
475,192,104185,1,0,0:0:0:0:
182,192,104303,1,0,0:0:0:0:
329,192,104303,1,0,0:0:0:0:
109,192,104421,1,0,0:0:0:0:
256,192,104421,1,0,0:0:0:0:
402,192,104421,1,0,0:0:0:0:
109,192,104538,1,0,0:0:0:0:
256,192,104538,1,0,0:0:0:0:
402,192,104538,1,0,0:0:0:0:
182,192,104656,1,0,0:0:0:0:
256,192,104656,1,0,0:0:0:0:
329,192,104656,1,0,0:0:0:0:
109,192,104774,1,0,0:0:0:0:
256,192,104774,1,0,0:0:0:0:
402,192,104774,1,0,0:0:0:0:
109,192,104891,1,0,0:0:0:0:
256,192,104891,1,0,0:0:0:0:
402,192,104891,1,0,0:0:0:0:
109,192,105009,1,0,0:0:0:0:
402,192,105009,1,0,0:0:0:0:
36,192,105127,1,0,0:0:0:0:
475,192,105127,1,0,0:0:0:0:
36,192,105244,1,0,0:0:0:0:
475,192,105244,1,0,0:0:0:0:
109,192,105362,1,0,0:0:0:0:
402,192,105362,1,0,0:0:0:0:
36,192,105479,1,0,0:0:0:0:
475,192,105479,1,0,0:0:0:0:
36,192,105597,1,0,0:0:0:0:
109,192,105627,1,0,0:0:0:0:
182,192,105656,1,0,0:0:0:0:
256,192,105685,1,0,0:0:0:0:
329,192,105715,1,0,0:0:0:0:
402,192,105744,1,0,0:0:0:0:
36,192,105774,1,0,0:0:0:0:
475,192,105774,1,0,0:0:0:0:
109,192,105803,1,0,0:0:0:0:
182,192,105832,1,0,0:0:0:0:
256,192,105862,1,0,0:0:0:0:
329,192,105891,1,0,0:0:0:0:
402,192,105921,1,0,0:0:0:0:
475,192,105950,1,0,0:0:0:0:
256,192,106038,1,0,0:0:0:0:
402,192,106038,1,0,0:0:0:0:
36,192,106127,1,0,0:0:0:0:
329,192,106127,1,0,0:0:0:0:
182,192,106215,1,0,0:0:0:0:
402,192,106215,1,0,0:0:0:0:
329,192,106303,1,0,0:0:0:0:
475,192,106303,1,0,0:0:0:0:
256,192,106391,1,0,0:0:0:0:
402,192,106391,1,0,0:0:0:0:
109,192,106479,1,0,0:0:0:0:
475,192,106479,1,0,0:0:0:0:
182,192,106568,1,0,0:0:0:0:
402,192,106568,1,0,0:0:0:0:
109,192,106656,1,0,0:0:0:0:
475,192,106656,1,0,0:0:0:0:
36,192,106744,1,0,0:0:0:0:
402,192,106744,1,0,0:0:0:0:
109,192,106832,1,0,0:0:0:0:
329,192,106832,1,0,0:0:0:0:
182,192,106921,1,0,0:0:0:0:
402,192,106921,1,0,0:0:0:0:
256,192,107009,1,0,0:0:0:0:
475,192,107009,128,0,107362:0:0:0:0:
182,192,107097,1,0,0:0:0:0:
329,192,107097,1,0,0:0:0:0:
36,192,107185,1,0,0:0:0:0:
256,192,107185,1,0,0:0:0:0:
182,192,107274,1,0,0:0:0:0:
329,192,107274,1,0,0:0:0:0:
109,192,107362,1,0,0:0:0:0:
256,192,107362,1,0,0:0:0:0:
182,192,107450,1,0,0:0:0:0:
402,192,107450,1,0,0:0:0:0:
109,192,107538,1,0,0:0:0:0:
329,192,107538,1,0,0:0:0:0:
182,192,107627,1,0,0:0:0:0:
475,192,107627,1,0,0:0:0:0:
256,192,107715,1,0,0:0:0:0:
402,192,107715,1,0,0:0:0:0:
256,192,107803,1,0,0:0:0:0:
329,192,107803,1,0,0:0:0:0:
475,192,107803,1,0,0:0:0:0:
109,192,107891,1,0,0:0:0:0:
402,192,107891,1,0,0:0:0:0:
182,192,107979,1,0,0:0:0:0:
475,192,107979,1,0,0:0:0:0:
36,192,108068,1,0,0:0:0:0:
109,192,108068,1,0,0:0:0:0:
329,192,108068,1,0,0:0:0:0:
256,192,108156,1,0,0:0:0:0:
402,192,108156,1,0,0:0:0:0:
109,192,108244,1,0,0:0:0:0:
329,192,108244,1,0,0:0:0:0:
475,192,108332,1,0,0:0:0:0:
36,192,108421,1,0,0:0:0:0:
256,192,108421,1,0,0:0:0:0:
402,192,108421,1,0,0:0:0:0:
329,192,108509,1,0,0:0:0:0:
256,192,108597,1,0,0:0:0:0:
109,192,108597,1,0,0:0:0:0:
256,192,108685,1,0,0:0:0:0:
402,192,108685,1,0,0:0:0:0:
36,192,108774,1,0,0:0:0:0:
182,192,108774,1,0,0:0:0:0:
329,192,108862,1,0,0:0:0:0:
475,192,108862,1,0,0:0:0:0:
109,192,108950,1,0,0:0:0:0:
256,192,108950,1,0,0:0:0:0:
36,192,109038,1,0,0:0:0:0:
329,192,109038,1,0,0:0:0:0:
475,192,109038,1,0,0:0:0:0:
109,192,109127,1,0,0:0:0:0:
256,192,109127,1,0,0:0:0:0:
402,192,109127,1,0,0:0:0:0:
329,192,109215,1,0,0:0:0:0:
475,192,109215,1,0,0:0:0:0:
182,192,109303,1,0,0:0:0:0:
256,192,109303,1,0,0:0:0:0:
109,192,109391,1,0,0:0:0:0:
475,192,109391,1,0,0:0:0:0:
36,192,109479,1,0,0:0:0:0:
329,192,109479,1,0,0:0:0:0:
109,192,109568,1,0,0:0:0:0:
402,192,109568,1,0,0:0:0:0:
36,192,109656,1,0,0:0:0:0:
182,192,109656,1,0,0:0:0:0:
329,192,109744,1,0,0:0:0:0:
402,192,109744,1,0,0:0:0:0:
256,192,109832,1,0,0:0:0:0:
475,192,109832,128,0,110185:0:0:0:0:
182,192,109921,1,0,0:0:0:0:
329,192,109921,1,0,0:0:0:0:
109,192,110009,1,0,0:0:0:0:
402,192,110009,1,0,0:0:0:0:
36,192,110097,1,0,0:0:0:0:
329,192,110097,1,0,0:0:0:0:
109,192,110185,1,0,0:0:0:0:
256,192,110185,1,0,0:0:0:0:
36,192,110274,1,0,0:0:0:0:
256,192,110274,1,0,0:0:0:0:
109,192,110362,1,0,0:0:0:0:
329,192,110362,1,0,0:0:0:0:
256,192,110450,1,0,0:0:0:0:
402,192,110450,1,0,0:0:0:0:
36,192,110538,1,0,0:0:0:0:
256,192,110538,1,0,0:0:0:0:
182,192,110627,1,0,0:0:0:0:
402,192,110627,1,0,0:0:0:0:
36,192,110715,1,0,0:0:0:0:
329,192,110715,1,0,0:0:0:0:
475,192,110715,1,0,0:0:0:0:
109,192,110803,1,0,0:0:0:0:
402,192,110803,1,0,0:0:0:0:
256,192,110891,1,0,0:0:0:0:
36,192,110891,1,0,0:0:0:0:
475,192,110891,128,0,111156:0:0:0:0:
109,192,110979,1,0,0:0:0:0:
256,192,111068,1,0,0:0:0:0:
402,192,111156,1,0,0:0:0:0:
329,192,111156,1,0,0:0:0:0:
36,192,111244,1,0,0:0:0:0:
182,192,111244,1,0,0:0:0:0:
256,192,111332,1,0,0:0:0:0:
402,192,111332,1,0,0:0:0:0:
36,192,111421,1,0,0:0:0:0:
329,192,111421,1,0,0:0:0:0:
182,192,111509,1,0,0:0:0:0:
402,192,111509,1,0,0:0:0:0:
36,192,111597,1,0,0:0:0:0:
329,192,111597,1,0,0:0:0:0:
475,192,111597,128,0,111862:0:0:0:0:
182,192,111685,1,0,0:0:0:0:
256,192,111685,1,0,0:0:0:0:
36,192,111774,1,0,0:0:0:0:
109,192,111774,1,0,0:0:0:0:
256,192,111862,1,0,0:0:0:0:
402,192,111862,128,0,112215:0:0:0:0:
36,192,111950,1,0,0:0:0:0:
182,192,111950,1,0,0:0:0:0:
329,192,111950,1,0,0:0:0:0:
256,192,112038,1,0,0:0:0:0:
36,192,112127,1,0,0:0:0:0:
182,192,112127,1,0,0:0:0:0:
109,192,112215,1,0,0:0:0:0:
329,192,112215,1,0,0:0:0:0:
475,192,112303,1,0,0:0:0:0:
36,192,112303,1,0,0:0:0:0:
109,192,112391,1,0,0:0:0:0:
256,192,112391,1,0,0:0:0:0:
36,192,112479,1,0,0:0:0:0:
182,192,112479,1,0,0:0:0:0:
475,192,112479,1,0,0:0:0:0:
109,192,112568,1,0,0:0:0:0:
402,192,112568,1,0,0:0:0:0:
182,192,112656,1,0,0:0:0:0:
329,192,112656,1,0,0:0:0:0:
36,192,112656,128,0,113009:0:0:0:0:
109,192,112744,1,0,0:0:0:0:
402,192,112744,1,0,0:0:0:0:
256,192,112832,1,0,0:0:0:0:
475,192,112832,1,0,0:0:0:0:
182,192,112921,1,0,0:0:0:0:
402,192,112921,1,0,0:0:0:0:
256,192,113009,1,0,0:0:0:0:
256,192,113097,1,0,0:0:0:0:
402,192,113097,1,0,0:0:0:0:
36,192,113185,1,0,0:0:0:0:
329,192,113185,1,0,0:0:0:0:
182,192,113274,1,0,0:0:0:0:
402,192,113274,1,0,0:0:0:0:
256,192,113362,1,0,0:0:0:0:
475,192,113362,1,0,0:0:0:0:
182,192,113450,1,0,0:0:0:0:
256,192,113450,1,0,0:0:0:0:
36,192,113538,1,0,0:0:0:0:
109,192,113538,1,0,0:0:0:0:
329,192,113627,1,0,0:0:0:0:
475,192,113627,1,0,0:0:0:0:
36,192,113715,1,0,0:0:0:0:
182,192,113715,1,0,0:0:0:0:
329,192,113803,1,0,0:0:0:0:
475,192,113803,1,0,0:0:0:0:
182,192,113891,1,0,0:0:0:0:
402,192,113891,1,0,0:0:0:0:
109,192,113979,1,0,0:0:0:0:
36,192,114068,1,0,0:0:0:0:
256,192,114068,1,0,0:0:0:0:
475,192,114068,1,0,0:0:0:0:
109,192,114156,1,0,0:0:0:0:
36,192,114244,1,0,0:0:0:0:
402,192,114244,1,0,0:0:0:0:
256,192,114244,1,0,0:0:0:0:
109,192,114332,1,0,0:0:0:0:
256,192,114332,1,0,0:0:0:0:
475,192,114332,1,0,0:0:0:0:
36,192,114421,1,0,0:0:0:0:
329,192,114421,1,0,0:0:0:0:
109,192,114509,1,0,0:0:0:0:
475,192,114509,1,0,0:0:0:0:
256,192,114509,1,0,0:0:0:0:
36,192,114597,1,0,0:0:0:0:
329,192,114597,1,0,0:0:0:0:
256,192,114685,1,0,0:0:0:0:
475,192,114685,1,0,0:0:0:0:
36,192,114774,1,0,0:0:0:0:
256,192,114774,1,0,0:0:0:0:
402,192,114862,1,0,0:0:0:0:
475,192,114862,1,0,0:0:0:0:
182,192,114950,1,0,0:0:0:0:
329,192,114950,1,0,0:0:0:0:
109,192,115038,1,0,0:0:0:0:
475,192,115038,1,0,0:0:0:0:
36,192,115127,1,0,0:0:0:0:
329,192,115127,1,0,0:0:0:0:
109,192,115215,1,0,0:0:0:0:
475,192,115215,1,0,0:0:0:0:
182,192,115303,1,0,0:0:0:0:
402,192,115303,1,0,0:0:0:0:
256,192,115391,1,0,0:0:0:0:
329,192,115391,1,0,0:0:0:0:
36,192,115479,1,0,0:0:0:0:
109,192,115479,1,0,0:0:0:0:
475,192,115479,128,0,115832:0:0:0:0:
182,192,115568,1,0,0:0:0:0:
329,192,115568,1,0,0:0:0:0:
109,192,115656,1,0,0:0:0:0:
402,192,115656,1,0,0:0:0:0:
182,192,115744,1,0,0:0:0:0:
36,192,115832,1,0,0:0:0:0:
256,192,115832,1,0,0:0:0:0:
182,192,115921,1,0,0:0:0:0:
256,192,115921,1,0,0:0:0:0:
36,192,116009,1,0,0:0:0:0:
329,192,116097,1,0,0:0:0:0:
256,192,116097,1,0,0:0:0:0:
475,192,116097,1,0,0:0:0:0:
36,192,116185,1,0,0:0:0:0:
256,192,116185,1,0,0:0:0:0:
329,192,116274,1,0,0:0:0:0:
182,192,116362,1,0,0:0:0:0:
402,192,116362,1,0,0:0:0:0:
329,192,116450,1,0,0:0:0:0:
36,192,116450,128,0,116891:0:0:0:0:
182,192,116538,1,0,0:0:0:0:
475,192,116538,1,0,0:0:0:0:
109,192,116627,1,0,0:0:0:0:
256,192,116627,1,0,0:0:0:0:
402,192,116627,1,0,0:0:0:0:
182,192,116715,1,0,0:0:0:0:
475,192,116715,1,0,0:0:0:0:
256,192,116803,1,0,0:0:0:0:
329,192,116891,1,0,0:0:0:0:
475,192,116891,1,0,0:0:0:0:
109,192,116979,1,0,0:0:0:0:
256,192,116979,1,0,0:0:0:0:
36,192,117068,1,0,0:0:0:0:
329,192,117068,1,0,0:0:0:0:
256,192,117156,1,0,0:0:0:0:
475,192,117156,1,0,0:0:0:0:
36,192,117244,1,0,0:0:0:0:
256,192,117244,1,0,0:0:0:0:
402,192,117244,1,0,0:0:0:0:
182,192,117332,1,0,0:0:0:0:
329,192,117332,1,0,0:0:0:0:
109,192,117421,1,0,0:0:0:0:
402,192,117421,1,0,0:0:0:0:
182,192,117509,1,0,0:0:0:0:
329,192,117509,1,0,0:0:0:0:
256,192,117597,1,0,0:0:0:0:
182,192,117685,1,0,0:0:0:0:
329,192,117685,1,0,0:0:0:0:
36,192,117774,1,0,0:0:0:0:
256,192,117774,1,0,0:0:0:0:
182,192,117862,1,0,0:0:0:0:
402,192,117862,1,0,0:0:0:0:
109,192,117950,1,0,0:0:0:0:
256,192,117950,1,0,0:0:0:0:
182,192,118038,1,0,0:0:0:0:
329,192,118038,1,0,0:0:0:0:
36,192,118127,1,0,0:0:0:0:
109,192,118127,1,0,0:0:0:0:
182,192,118215,1,0,0:0:0:0:
475,192,118215,1,0,0:0:0:0:
109,192,118303,1,0,0:0:0:0:
402,192,118303,1,0,0:0:0:0:
329,192,118391,1,0,0:0:0:0:
475,192,118391,1,0,0:0:0:0:
36,192,118479,1,0,0:0:0:0:
109,192,118479,1,0,0:0:0:0:
402,192,118479,1,0,0:0:0:0:
256,192,118568,1,0,0:0:0:0:
475,192,118568,1,0,0:0:0:0:
109,192,118656,1,0,0:0:0:0:
256,192,118656,1,0,0:0:0:0:
182,192,118656,128,0,119009:0:0:0:0:
329,192,118744,1,0,0:0:0:0:
36,192,118832,1,0,0:0:0:0:
402,192,118832,1,0,0:0:0:0:
109,192,118921,1,0,0:0:0:0:
256,192,118921,1,0,0:0:0:0:
36,192,119009,1,0,0:0:0:0:
329,192,119009,1,0,0:0:0:0:
475,192,119009,1,0,0:0:0:0:
256,192,119097,1,0,0:0:0:0:
402,192,119185,1,0,0:0:0:0:
182,192,119274,1,0,0:0:0:0:
256,192,119274,1,0,0:0:0:0:
36,192,119362,1,0,0:0:0:0:
475,192,119362,1,0,0:0:0:0:
402,192,119362,128,0,119715:0:0:0:0:
256,192,119450,1,0,0:0:0:0:
329,192,119450,1,0,0:0:0:0:
109,192,119538,1,0,0:0:0:0:
475,192,119538,1,0,0:0:0:0:
256,192,119627,1,0,0:0:0:0:
475,192,119715,1,0,0:0:0:0:
36,192,119715,1,0,0:0:0:0:
329,192,119715,128,0,120068:0:0:0:0:
109,192,119803,1,0,0:0:0:0:
182,192,119803,1,0,0:0:0:0:
256,192,119891,1,0,0:0:0:0:
36,192,119891,1,0,0:0:0:0:
402,192,119979,1,0,0:0:0:0:
109,192,119979,1,0,0:0:0:0:
36,192,120068,1,0,0:0:0:0:
182,192,120068,1,0,0:0:0:0:
109,192,120156,1,0,0:0:0:0:
402,192,120156,1,0,0:0:0:0:
36,192,120244,1,0,0:0:0:0:
182,192,120244,1,0,0:0:0:0:
256,192,120332,1,0,0:0:0:0:
475,192,120332,1,0,0:0:0:0:
36,192,120421,1,0,0:0:0:0:
329,192,120421,1,0,0:0:0:0:
402,192,120509,1,0,0:0:0:0:
475,192,120509,1,0,0:0:0:0:
109,192,120597,1,0,0:0:0:0:
329,192,120597,1,0,0:0:0:0:
256,192,120685,1,0,0:0:0:0:
475,192,120685,1,0,0:0:0:0:
109,192,120774,1,0,0:0:0:0:
329,192,120774,1,0,0:0:0:0:
475,192,120862,1,0,0:0:0:0:
109,192,120950,1,0,0:0:0:0:
256,192,120950,1,0,0:0:0:0:
402,192,120950,1,0,0:0:0:0:
256,192,121038,1,0,0:0:0:0:
475,192,121038,1,0,0:0:0:0:
256,192,121127,1,0,0:0:0:0:
36,192,121127,1,0,0:0:0:0:
182,192,121215,1,0,0:0:0:0:
475,192,121215,1,0,0:0:0:0:
36,192,121303,1,0,0:0:0:0:
402,192,121303,1,0,0:0:0:0:
256,192,121391,1,0,0:0:0:0:
475,192,121391,1,0,0:0:0:0:
36,192,121479,1,0,0:0:0:0:
256,192,121479,1,0,0:0:0:0:
256,192,121568,1,0,0:0:0:0:
475,192,121568,1,0,0:0:0:0:
109,192,121656,1,0,0:0:0:0:
402,192,121656,1,0,0:0:0:0:
329,192,121744,1,0,0:0:0:0:
475,192,121744,1,0,0:0:0:0:
402,192,121832,1,0,0:0:0:0:
256,192,121832,1,0,0:0:0:0:
109,192,121921,1,0,0:0:0:0:
475,192,121921,1,0,0:0:0:0:
182,192,122009,1,0,0:0:0:0:
402,192,122009,1,0,0:0:0:0:
109,192,122097,1,0,0:0:0:0:
256,192,122097,1,0,0:0:0:0:
256,192,122185,1,0,0:0:0:0:
402,192,122185,1,0,0:0:0:0:
36,192,122185,128,0,122450:0:0:0:0:
109,192,122274,1,0,0:0:0:0:
256,192,122274,1,0,0:0:0:0:
402,192,122362,1,0,0:0:0:0:
329,192,122450,1,0,0:0:0:0:
182,192,122450,128,0,122715:0:0:0:0:
109,192,122538,1,0,0:0:0:0:
256,192,122538,1,0,0:0:0:0:
475,192,122538,1,0,0:0:0:0:
402,192,122627,1,0,0:0:0:0:
256,192,122627,1,0,0:0:0:0:
36,192,122715,1,0,0:0:0:0:
475,192,122715,1,0,0:0:0:0:
256,192,122803,1,0,0:0:0:0:
36,192,122891,1,0,0:0:0:0:
402,192,122891,1,0,0:0:0:0:
475,192,122891,1,0,0:0:0:0:
182,192,122979,1,0,0:0:0:0:
329,192,122979,1,0,0:0:0:0:
256,192,123068,1,0,0:0:0:0:
475,192,123068,1,0,0:0:0:0:
109,192,123156,1,0,0:0:0:0:
329,192,123156,1,0,0:0:0:0:
36,192,123244,1,0,0:0:0:0:
256,192,123244,1,0,0:0:0:0:
109,192,123332,1,0,0:0:0:0:
329,192,123421,1,0,0:0:0:0:
402,192,123421,1,0,0:0:0:0:
36,192,123509,1,0,0:0:0:0:
256,192,123509,1,0,0:0:0:0:
182,192,123597,1,0,0:0:0:0:
329,192,123597,1,0,0:0:0:0:
36,192,123685,1,0,0:0:0:0:
256,192,123685,1,0,0:0:0:0:
329,192,123774,1,0,0:0:0:0:
475,192,123774,1,0,0:0:0:0:
109,192,123862,1,0,0:0:0:0:
256,192,123862,1,0,0:0:0:0:
36,192,123950,1,0,0:0:0:0:
182,192,123950,1,0,0:0:0:0:
109,192,124038,1,0,0:0:0:0:
256,192,124038,1,0,0:0:0:0:
475,192,124038,1,0,0:0:0:0:
329,192,124127,1,0,0:0:0:0:
402,192,124127,1,0,0:0:0:0:
256,192,124215,1,0,0:0:0:0:
475,192,124215,1,0,0:0:0:0:
182,192,124303,1,0,0:0:0:0:
402,192,124303,1,0,0:0:0:0:
36,192,124303,128,0,124656:0:0:0:0:
256,192,124391,1,0,0:0:0:0:
475,192,124391,1,0,0:0:0:0:
109,192,124479,1,0,0:0:0:0:
329,192,124479,1,0,0:0:0:0:
256,192,124568,1,0,0:0:0:0:
475,192,124568,1,0,0:0:0:0:
182,192,124656,1,0,0:0:0:0:
402,192,124656,1,0,0:0:0:0:
256,192,124744,1,0,0:0:0:0:
475,192,124744,1,0,0:0:0:0:
109,192,124832,1,0,0:0:0:0:
329,192,124832,1,0,0:0:0:0:
182,192,124921,1,0,0:0:0:0:
402,192,124921,1,0,0:0:0:0:
256,192,125009,1,0,0:0:0:0:
475,192,125009,128,0,125362:0:0:0:0:
182,192,125097,1,0,0:0:0:0:
329,192,125097,1,0,0:0:0:0:
109,192,125185,1,0,0:0:0:0:
256,192,125185,1,0,0:0:0:0:
182,192,125274,1,0,0:0:0:0:
329,192,125274,1,0,0:0:0:0:
256,192,125362,1,0,0:0:0:0:
36,192,125362,128,0,125715:0:0:0:0:
182,192,125450,1,0,0:0:0:0:
402,192,125450,1,0,0:0:0:0:
329,192,125538,1,0,0:0:0:0:
475,192,125538,1,0,0:0:0:0:
256,192,125627,1,0,0:0:0:0:
402,192,125627,1,0,0:0:0:0:
182,192,125715,1,0,0:0:0:0:
256,192,125803,1,0,0:0:0:0:
475,192,125803,1,0,0:0:0:0:
109,192,125891,1,0,0:0:0:0:
402,192,125891,1,0,0:0:0:0:
36,192,125979,1,0,0:0:0:0:
256,192,125979,1,0,0:0:0:0:
475,192,125979,1,0,0:0:0:0:
109,192,126068,1,0,0:0:0:0:
402,192,126068,1,0,0:0:0:0:
36,192,126156,1,0,0:0:0:0:
256,192,126156,1,0,0:0:0:0:
182,192,126244,1,0,0:0:0:0:
475,192,126244,1,0,0:0:0:0:
256,192,126332,1,0,0:0:0:0:
402,192,126332,1,0,0:0:0:0:
36,192,126421,1,0,0:0:0:0:
182,192,126421,1,0,0:0:0:0:
329,192,126509,1,0,0:0:0:0:
402,192,126509,1,0,0:0:0:0:
182,192,126597,1,0,0:0:0:0:
256,192,126597,1,0,0:0:0:0:
475,192,126597,1,0,0:0:0:0:
109,192,126685,1,0,0:0:0:0:
256,192,126685,1,0,0:0:0:0:
36,192,126774,1,0,0:0:0:0:
256,192,126774,1,0,0:0:0:0:
329,192,126862,1,0,0:0:0:0:
475,192,126862,1,0,0:0:0:0:
36,192,126950,1,0,0:0:0:0:
402,192,126950,1,0,0:0:0:0:
182,192,127038,1,0,0:0:0:0:
475,192,127038,1,0,0:0:0:0:
36,192,127127,1,0,0:0:0:0:
256,192,127127,1,0,0:0:0:0:
402,192,127127,128,0,127479:0:0:0:0:
329,192,127215,1,0,0:0:0:0:
475,192,127215,1,0,0:0:0:0:
36,192,127303,1,0,0:0:0:0:
256,192,127303,1,0,0:0:0:0:
109,192,127391,1,0,0:0:0:0:
475,192,127391,1,0,0:0:0:0:
36,192,127479,1,0,0:0:0:0:
109,192,127568,1,0,0:0:0:0:
475,192,127568,1,0,0:0:0:0:
182,192,127656,1,0,0:0:0:0:
256,192,127656,1,0,0:0:0:0:
109,192,127744,1,0,0:0:0:0:
475,192,127744,1,0,0:0:0:0:
36,192,127832,1,0,0:0:0:0:
182,192,127832,1,0,0:0:0:0:
329,192,127832,128,0,128185:0:0:0:0:
109,192,127921,1,0,0:0:0:0:
402,192,127921,1,0,0:0:0:0:
182,192,128009,1,0,0:0:0:0:
256,192,128097,1,0,0:0:0:0:
109,192,128097,1,0,0:0:0:0:
36,192,128185,1,0,0:0:0:0:
475,192,128185,128,0,128538:0:0:0:0:
256,192,128274,1,0,0:0:0:0:
402,192,128274,1,0,0:0:0:0:
36,192,128362,1,0,0:0:0:0:
182,192,128362,1,0,0:0:0:0:
109,192,128450,1,0,0:0:0:0:
402,192,128450,1,0,0:0:0:0:
182,192,128538,1,0,0:0:0:0:
36,192,128538,128,0,128891:0:0:0:0:
109,192,128627,1,0,0:0:0:0:
256,192,128627,1,0,0:0:0:0:
182,192,128715,1,0,0:0:0:0:
329,192,128715,1,0,0:0:0:0:
256,192,128803,1,0,0:0:0:0:
329,192,128891,1,0,0:0:0:0:
475,192,128891,1,0,0:0:0:0:
109,192,128891,128,0,129244:0:0:0:0:
402,192,128979,1,0,0:0:0:0:
182,192,129068,1,0,0:0:0:0:
329,192,129068,1,0,0:0:0:0:
256,192,129156,1,0,0:0:0:0:
182,192,129244,1,0,0:0:0:0:
329,192,129244,1,0,0:0:0:0:
36,192,129244,128,0,129597:0:0:0:0:
109,192,129332,1,0,0:0:0:0:
256,192,129332,1,0,0:0:0:0:
182,192,129421,1,0,0:0:0:0:
329,192,129421,1,0,0:0:0:0:
475,192,129421,1,0,0:0:0:0:
256,192,129509,1,0,0:0:0:0:
402,192,129509,1,0,0:0:0:0:
182,192,129597,1,0,0:0:0:0:
329,192,129597,1,0,0:0:0:0:
475,192,129597,1,0,0:0:0:0:
256,192,129685,1,0,0:0:0:0:
182,192,129774,1,0,0:0:0:0:
329,192,129774,1,0,0:0:0:0:
109,192,129862,1,0,0:0:0:0:
36,192,129950,1,0,0:0:0:0:
182,192,129950,1,0,0:0:0:0:
475,192,129950,128,0,130303:0:0:0:0:
109,192,130038,1,0,0:0:0:0:
36,192,130127,1,0,0:0:0:0:
182,192,130127,1,0,0:0:0:0:
329,192,130127,1,0,0:0:0:0:
256,192,130215,1,0,0:0:0:0:
182,192,130303,1,0,0:0:0:0:
329,192,130303,1,0,0:0:0:0:
256,192,130391,1,0,0:0:0:0:
329,192,130479,1,0,0:0:0:0:
475,192,130479,1,0,0:0:0:0:
256,192,130568,1,0,0:0:0:0:
182,192,130656,1,0,0:0:0:0:
329,192,130656,1,0,0:0:0:0:
475,192,130656,1,0,0:0:0:0:
402,192,130656,128,0,131009:0:0:0:0:
256,192,130744,1,0,0:0:0:0:
182,192,130832,1,0,0:0:0:0:
329,192,130832,1,0,0:0:0:0:
475,192,130921,1,0,0:0:0:0:
109,192,130921,1,0,0:0:0:0:
256,192,130921,1,0,0:0:0:0:
36,192,131009,1,0,0:0:0:0:
182,192,131009,1,0,0:0:0:0:
329,192,131009,128,0,131362:0:0:0:0:
109,192,131097,1,0,0:0:0:0:
475,192,131185,1,0,0:0:0:0:
36,192,131185,1,0,0:0:0:0:
182,192,131185,1,0,0:0:0:0:
256,192,131274,1,0,0:0:0:0:
402,192,131274,1,0,0:0:0:0:
36,192,131362,1,0,0:0:0:0:
182,192,131362,1,0,0:0:0:0:
109,192,131450,1,0,0:0:0:0:
256,192,131450,1,0,0:0:0:0:
182,192,131538,1,0,0:0:0:0:
329,192,131538,1,0,0:0:0:0:
475,192,131538,1,0,0:0:0:0:
402,192,131627,1,0,0:0:0:0:
36,192,131715,1,0,0:0:0:0:
182,192,131715,1,0,0:0:0:0:
329,192,131715,1,0,0:0:0:0:
475,192,131715,1,0,0:0:0:0:
256,192,131803,1,0,0:0:0:0:
182,192,131891,1,0,0:0:0:0:
329,192,131891,1,0,0:0:0:0:
109,192,131979,1,0,0:0:0:0:
36,192,132068,1,0,0:0:0:0:
182,192,132068,1,0,0:0:0:0:
329,192,132068,1,0,0:0:0:0:
256,192,132156,1,0,0:0:0:0:
36,192,132244,1,0,0:0:0:0:
182,192,132244,1,0,0:0:0:0:
329,192,132244,1,0,0:0:0:0:
36,192,132332,1,0,0:0:0:0:
256,192,132332,1,0,0:0:0:0:
402,192,132332,1,0,0:0:0:0:
36,192,132421,1,0,0:0:0:0:
182,192,132421,1,0,0:0:0:0:
475,192,132421,1,0,0:0:0:0:
402,192,132509,1,0,0:0:0:0:
182,192,132597,1,0,0:0:0:0:
329,192,132597,1,0,0:0:0:0:
475,192,132597,1,0,0:0:0:0:
256,192,132685,1,0,0:0:0:0:
182,192,132774,1,0,0:0:0:0:
329,192,132774,1,0,0:0:0:0:
36,192,132774,1,0,0:0:0:0:
109,192,132862,1,0,0:0:0:0:
256,192,132862,1,0,0:0:0:0:
36,192,132950,1,0,0:0:0:0:
329,192,132950,1,0,0:0:0:0:
36,192,133038,1,0,0:0:0:0:
256,192,133038,1,0,0:0:0:0:
402,192,133038,1,0,0:0:0:0:
36,192,133127,1,0,0:0:0:0:
182,192,133127,1,0,0:0:0:0:
475,192,133127,1,0,0:0:0:0:
256,192,133215,1,0,0:0:0:0:
329,192,133303,1,0,0:0:0:0:
475,192,133303,1,0,0:0:0:0:
36,192,133303,1,0,0:0:0:0:
402,192,133391,1,0,0:0:0:0:
182,192,133479,1,0,0:0:0:0:
329,192,133479,1,0,0:0:0:0:
475,192,133479,128,0,134185:0:0:0:0:
256,192,133568,1,0,0:0:0:0:
402,192,133568,1,0,0:0:0:0:
36,192,133568,1,0,0:0:0:0:
182,192,133656,1,0,0:0:0:0:
329,192,133656,1,0,0:0:0:0:
109,192,133744,1,0,0:0:0:0:
256,192,133744,1,0,0:0:0:0:
182,192,133832,1,0,0:0:0:0:
329,192,133832,1,0,0:0:0:0:
402,192,133832,128,0,134185:0:0:0:0:
36,192,133921,1,0,0:0:0:0:
109,192,133921,1,0,0:0:0:0:
182,192,134009,1,0,0:0:0:0:
329,192,134009,1,0,0:0:0:0:
256,192,134097,1,0,0:0:0:0:
36,192,134185,1,0,0:0:0:0:
182,192,134185,1,0,0:0:0:0:
329,192,134185,1,0,0:0:0:0:
109,192,134274,1,0,0:0:0:0:
256,192,134274,1,0,0:0:0:0:
182,192,134362,1,0,0:0:0:0:
329,192,134362,1,0,0:0:0:0:
256,192,134450,1,0,0:0:0:0:
36,192,134538,1,0,0:0:0:0:
182,192,134538,1,0,0:0:0:0:
329,192,134538,1,0,0:0:0:0:
475,192,134538,1,0,0:0:0:0:
402,192,134627,1,0,0:0:0:0:
182,192,134715,1,0,0:0:0:0:
329,192,134715,1,0,0:0:0:0:
475,192,134715,1,0,0:0:0:0:
256,192,134803,1,0,0:0:0:0:
36,192,134891,1,0,0:0:0:0:
182,192,134891,1,0,0:0:0:0:
329,192,134891,1,0,0:0:0:0:
109,192,134979,1,0,0:0:0:0:
256,192,134979,1,0,0:0:0:0:
36,192,135068,1,0,0:0:0:0:
182,192,135068,1,0,0:0:0:0:
329,192,135068,1,0,0:0:0:0:
256,192,135156,1,0,0:0:0:0:
402,192,135156,1,0,0:0:0:0:
36,192,135244,1,0,0:0:0:0:
182,192,135244,1,0,0:0:0:0:
329,192,135244,1,0,0:0:0:0:
475,192,135244,1,0,0:0:0:0:
256,192,135332,1,0,0:0:0:0:
182,192,135421,1,0,0:0:0:0:
329,192,135421,1,0,0:0:0:0:
109,192,135509,1,0,0:0:0:0:
36,192,135597,1,0,0:0:0:0:
182,192,135597,1,0,0:0:0:0:
329,192,135597,1,0,0:0:0:0:
109,192,135685,1,0,0:0:0:0:
256,192,135685,1,0,0:0:0:0:
182,192,135774,1,0,0:0:0:0:
329,192,135774,1,0,0:0:0:0:
475,192,135774,1,0,0:0:0:0:
402,192,135862,1,0,0:0:0:0:
182,192,135950,1,0,0:0:0:0:
329,192,135950,1,0,0:0:0:0:
475,192,135950,1,0,0:0:0:0:
256,192,136038,1,0,0:0:0:0:
402,192,136038,1,0,0:0:0:0:
36,192,136127,1,0,0:0:0:0:
182,192,136127,1,0,0:0:0:0:
475,192,136127,1,0,0:0:0:0:
109,192,136215,1,0,0:0:0:0:
36,192,136303,1,0,0:0:0:0:
182,192,136303,1,0,0:0:0:0:
475,192,136303,1,0,0:0:0:0:
402,192,136303,128,0,136656:0:0:0:0:
256,192,136391,1,0,0:0:0:0:
329,192,136479,1,0,0:0:0:0:
256,192,136568,1,0,0:0:0:0:
475,192,136568,1,0,0:0:0:0:
36,192,136656,1,0,0:0:0:0:
182,192,136656,1,0,0:0:0:0:
329,192,136656,128,0,137009:0:0:0:0:
109,192,136744,1,0,0:0:0:0:
36,192,136832,1,0,0:0:0:0:
182,192,136832,1,0,0:0:0:0:
475,192,136832,1,0,0:0:0:0:
109,192,136921,1,0,0:0:0:0:
256,192,137009,1,0,0:0:0:0:
36,192,137009,1,0,0:0:0:0:
109,192,137097,1,0,0:0:0:0:
256,192,137097,1,0,0:0:0:0:
36,192,137185,1,0,0:0:0:0:
182,192,137185,1,0,0:0:0:0:
329,192,137185,1,0,0:0:0:0:
256,192,137274,1,0,0:0:0:0:
36,192,137362,1,0,0:0:0:0:
182,192,137362,1,0,0:0:0:0:
329,192,137362,1,0,0:0:0:0:
475,192,137362,1,0,0:0:0:0:
402,192,137450,1,0,0:0:0:0:
182,192,137538,1,0,0:0:0:0:
329,192,137538,1,0,0:0:0:0:
475,192,137538,1,0,0:0:0:0:
256,192,137627,1,0,0:0:0:0:
36,192,137715,1,0,0:0:0:0:
182,192,137715,1,0,0:0:0:0:
329,192,137715,1,0,0:0:0:0:
475,192,137715,1,0,0:0:0:0:
109,192,137803,1,0,0:0:0:0:
256,192,137803,1,0,0:0:0:0:
36,192,137891,1,0,0:0:0:0:
182,192,137891,1,0,0:0:0:0:
329,192,137891,1,0,0:0:0:0:
475,192,137891,1,0,0:0:0:0:
256,192,137979,1,0,0:0:0:0:
402,192,137979,1,0,0:0:0:0:
36,192,138068,1,0,0:0:0:0:
182,192,138068,1,0,0:0:0:0:
329,192,138068,1,0,0:0:0:0:
475,192,138068,1,0,0:0:0:0:
109,192,138156,1,0,0:0:0:0:
256,192,138156,1,0,0:0:0:0:
36,192,138244,1,0,0:0:0:0:
182,192,138244,1,0,0:0:0:0:
329,192,138244,1,0,0:0:0:0:
256,192,138332,1,0,0:0:0:0:
36,192,138421,1,0,0:0:0:0:
182,192,138421,1,0,0:0:0:0:
329,192,138421,1,0,0:0:0:0:
475,192,138421,1,0,0:0:0:0:
109,192,138509,1,0,0:0:0:0:
256,192,138509,1,0,0:0:0:0:
402,192,138509,1,0,0:0:0:0:
36,192,138597,1,0,0:0:0:0:
182,192,138597,1,0,0:0:0:0:
329,192,138597,1,0,0:0:0:0:
109,192,138685,1,0,0:0:0:0:
256,192,138685,1,0,0:0:0:0:
402,192,138685,1,0,0:0:0:0:
36,192,138774,1,0,0:0:0:0:
182,192,138774,1,0,0:0:0:0:
329,192,138774,1,0,0:0:0:0:
475,192,138774,1,0,0:0:0:0:
256,192,138862,1,0,0:0:0:0:
402,192,138862,1,0,0:0:0:0:
36,192,138950,1,0,0:0:0:0:
182,192,138950,1,0,0:0:0:0:
329,192,138950,1,0,0:0:0:0:
475,192,138950,1,0,0:0:0:0:
109,192,139038,1,0,0:0:0:0:
256,192,139038,1,0,0:0:0:0:
36,192,139127,1,0,0:0:0:0:
182,192,139127,1,0,0:0:0:0:
329,192,139127,1,0,0:0:0:0:
475,192,139127,1,0,0:0:0:0:
256,192,139215,1,0,0:0:0:0:
402,192,139215,1,0,0:0:0:0:
182,192,139303,1,0,0:0:0:0:
329,192,139303,1,0,0:0:0:0:
109,192,139391,1,0,0:0:0:0:
256,192,139391,1,0,0:0:0:0:
36,192,139479,1,0,0:0:0:0:
182,192,139479,1,0,0:0:0:0:
329,192,139479,1,0,0:0:0:0:
475,192,139479,1,0,0:0:0:0:
402,192,139568,1,0,0:0:0:0:
36,192,139656,1,0,0:0:0:0:
182,192,139656,1,0,0:0:0:0:
329,192,139656,1,0,0:0:0:0:
256,192,139744,1,0,0:0:0:0:
36,192,140185,1,0,0:0:0:0:
475,192,140185,1,0,0:0:0:0:
